藍光電影網

 找回密碼
 立即注冊

QQ登錄

只需一步,快速開始

搜索
熱搜: 活動 交友 discuz
查看: 19|回復: 0
打印 上一主題 下一主題

[劇情片] 獅子王/獅子王真人版 The.Lion.King.2019.1080p.3D.BluRay.Half-SBS.x264.TrueHD.7.1.Atmos-FGT 20.35GB

[復制鏈接]

3萬

主題

3萬

帖子

4萬

積分

管理員

Rank: 9Rank: 9Rank: 9

積分
46044
跳轉到指定樓層
1#
發表于 2019-11-14 16:14:51 | 只看該作者 |只看大圖 回帖獎勵 |倒序瀏覽 |閱讀模式


譯  名 獅子王 / 獅子王真人版 / 獅子王實在版 / 獅子王真獅版
片  名 The Lion King
年  代 2019
產  地 美國
類  別 劇情 / 動畫 / 冒險
語  言 英語 / 科薩語
上映日期 2019-07-12(中國大陸) / 2019-07-19(美國)
IMDb評分7.1/10 from 104480 users
IMDb鏈接http://www.imdb.com/title/tt6105098
豆瓣評分 7.4/10 from 196500 users
豆瓣鏈接 https://movie.douban.com/subject/26884354/
片  長 118分鐘
導  演 喬恩·費儒 Jon Favreau
編  劇 杰夫·內桑森 Jeff Nathanson / 布蘭達?查普曼 Brenda Chapman / 艾琳·梅琪 Irene Mecchi / 喬納森·羅伯茨 Jonathan Roberts / 琳達·伍爾芙頓 Linda Woolverton
主  演 唐納德·格洛弗 Donald Glover
     阿爾法·伍達德 Alfre Woodard
     詹姆斯·厄爾·瓊斯 James Earl Jones
     切瓦特·埃加福特 Chiwetel Ejiofor
     科甘-邁克爾·凱 Keegan-Michael Key
     塞斯·羅根 Seth Rogen
     比利·艾希納 Billy Eichner
     碧昂絲·諾爾斯 Beyoncé Knowles
     埃里克·安德烈 Eric André
     弗洛倫絲·卡松巴 Florence Kasumba
     約翰·卡尼 John Kani
     約翰·奧利弗 John Oliver
     艾米·塞德麗絲 Amy Sedaris


標  簽 迪士尼 | 典范 | 動畫 | 童年 | 美國 | 長大 | 2019 | 動物

簡  介

  非洲大草原上一輪紅日冉冉升起,為高峻的乞力馬扎羅山披上層金色的光紗,一切的動物涌向了同一個地方——光榮石,興奮地期待著一個嚴重消息的公布:它們的國王木法沙將迎來自己的新生兒。
  這個新生兒就是小獅子辛巴,它是木法沙的法定接棒人、光榮石未來的國王。
  小獅子王辛巴在眾多熱情的朋友的陪伴下,不單履歷了生射中最名譽的時辰,也遭受了最艱難的應戰,最初終究成為了森林之王,也在循環往復生生不息的自然中體味誕生命的真義。

獲獎情況

  第5屆豆瓣電影年度榜單(2018)
  最值得期待的外語電影(提名)
  • Video
  • ID             : 1
  • Format           : AVC
  • Format/Info          : Advanced Video Codec
  • Format profile         : [email protected]
  • Format settings        : CABAC / 3 Ref Frames
  • Format settings, CABAC       : Yes
  • Format settings, Reference frames  : 3 frames
  • Codec ID           : V_MPEG4/ISO/AVC
  • Duration           : 1 h 58 min
  • Bit rate           : 15.5 Mb/s
  • Width            : 1 920 pixels
  • Height           : 1 080 pixels
  • Display aspect ratio       : 16:9
  • Frame rate mode        : Constant
  • Frame rate           : 23.976 (24000/1001) FPS
  • Color space          : YUV
  • Chroma subsampling       : 4:2:0
  • Bit depth          : 8 bits
  • Scan type          : Progressive
  • Bits/(Pixel*Frame)       : 0.312
  • Stream size          : 12.7 GiB (62%)
  • Title            : The.Lion.King.2019.1080p.3D.BluRay.Half-SBS.x264.TrueHD.7.1.Atmos-FGT
  • Writing library        : x264 core 148
  • Encoding settings        : cabac=1 / ref=3 / deblock=1:-1:-1 / analyse=0x3:0 / me=hex / subme=5 / psy=1 / psy_rd=1.00:0.00 / mixed_ref=0 / me_range=16 / chroma_me=1 / trellis=1 / 8x8dct=1 / cqm=0 / deadzone=21,11 / fast_pskip=0 / chroma_qp_offset=0 / threads=24 / lookahead_threads=6 / sliced_threads=0 / nr=0 / decimate=1 / interlaced=0 / bluray_compat=0 / constrained_intra=0 / bframes=2 / b_pyramid=0 / b_adapt=1 / b_bias=0 / direct=1 / weightb=0 / open_gop=0 / weightp=0 / keyint=24 / keyint_min=2 / scenecut=40 / intra_refresh=0 / rc=abr / mbtree=0 / bitrate=15500 / ratetol=1.0 / qcomp=0.60 / qpmin=0 / qpmax=69 / qpstep=4 / ip_ratio=1.40 / pb_ratio=1.30 / aq=1:1.00
  • Default            : Yes
  • Forced           : No
  • Color range          : Limited
  • Color primaries        : BT.709
  • Transfer characteristics     : BT.709
  • Matrix coefficients        : BT.709
  • Audio #1
  • ID             : 2
  • Format           : MLP FBA 16-ch
  • Format/Info          : Meridian Lossless Packing FBA with 16-channel presentation
  • Commercial name        : Dolby TrueHD with Dolby Atmos
  • Codec ID           : A_TRUEHD
  • Duration           : 1 h 58 min
  • Bit rate mode          : Variable
  • Bit rate           : 4 929 kb/s
  • Maximum bit rate         : 7 332 kb/s
  • Channel(s)           : 8 channels
  • Channel layout         : L R C LFE Ls Rs Lb Rb
  • Sampling rate          : 48.0 kHz
  • Frame rate           : 1 200.000 FPS (40 SPF)
  • Compression mode         : Lossless
  • Stream size          : 4.07 GiB (20%)
  • Title            : The.Lion.King.2019.1080p.3D.BluRay.Half-SBS.x264.TrueHD.7.1.Atmos-FGT
  • Language           : English
  • Default            : Yes
  • Forced           : No
  • Number of dynamic objects      : 13
  • Bed channel count        : 1 channel
  • Bed channel configuration      : LFE
  • Audio #2
  • ID             : 3
  • Format           : AC-3
  • Format/Info          : Audio Coding 3
  • Commercial name        : Dolby Digital
  • Codec ID           : A_AC3
  • Duration           : 1 h 58 min
  • Bit rate mode          : Constant
  • Bit rate           : 640 kb/s
  • Channel(s)           : 6 channels
  • Channel layout         : L R C LFE Ls Rs
  • Sampling rate          : 48.0 kHz
  • Frame rate           : 31.250 FPS (1536 SPF)
  • Bit depth          : 16 bits
  • Compression mode         : Lossy
  • Stream size          : 541 MiB (3%)
  • Title            : The.Lion.King.2019.1080p.3D.BluRay.Half-SBS.x264.TrueHD.7.1.Atmos-FGT
  • Language           : English
  • Service kind         : Complete Main
  • Default            : No
  • Forced           : No
  • Audio #3
  • ID             : 4
  • Format           : DTS
  • Format/Info          : Digital Theater Systems
  • Codec ID           : A_DTS
  • Duration           : 1 h 58 min
  • Bit rate mode          : Constant
  • Bit rate           : 1 509 kb/s
  • Channel(s)           : 6 channels
  • Channel layout         : C L R Ls Rs LFE
  • Sampling rate          : 48.0 kHz
  • Frame rate           : 93.750 FPS (512 SPF)
  • Bit depth          : 24 bits
  • Compression mode         : Lossy
  • Stream size          : 1.25 GiB (6%)
  • Title            : The.Lion.King.2019.1080p.3D.BluRay.Half-SBS.x264.TrueHD.7.1.Atmos-FGT
  • Language           : Spanish
  • Default            : No
  • Forced           : No
  • Audio #4
  • ID             : 5
  • Format           : AC-3
  • Format/Info          : Audio Coding 3
  • Commercial name        : Dolby Digital
  • Codec ID           : A_AC3
  • Duration           : 1 h 58 min
  • Bit rate mode          : Constant
  • Bit rate           : 320 kb/s
  • Channel(s)           : 2 channels
  • Channel layout         : L R
  • Sampling rate          : 48.0 kHz
  • Frame rate           : 31.250 FPS (1536 SPF)
  • Bit depth          : 16 bits
  • Compression mode         : Lossy
  • Stream size          : 271 MiB (1%)
  • Title            : The.Lion.King.2019.1080p.3D.BluRay.Half-SBS.x264.TrueHD.7.1.Atmos-FGT
  • Language           : English
  • Service kind         : Complete Main
  • Default            : No
  • Forced           : No
  • Audio #5
  • ID             : 6
  • Format           : E-AC-3
  • Format/Info          : Enhanced AC-3
  • Commercial name        : Dolby Digital Plus
  • Format profile         : Blu-ray Disc
  • Codec ID           : A_EAC3
  • Duration           : 1 h 58 min
  • Bit rate mode          : Constant
  • Bit rate           : 896 kb/s
  • Channel(s)           : 8 channels
  • Channel layout         : L R C LFE Ls Rs Lb Rb
  • Sampling rate          : 48.0 kHz
  • Frame rate           : 31.250 FPS (1536 SPF)
  • Compression mode         : Lossy
  • Stream size          : 758 MiB (4%)
  • Title            : The.Lion.King.2019.1080p.3D.BluRay.Half-SBS.x264.TrueHD.7.1.Atmos-FGT
  • Language           : French
  • Service kind         : Complete Main
  • Default            : No
  • Forced           : No
  • Audio #6
  • ID             : 7
  • Format           : E-AC-3
  • Format/Info          : Enhanced AC-3
  • Commercial name        : Dolby Digital Plus
  • Format profile         : Blu-ray Disc
  • Codec ID           : A_EAC3
  • Duration           : 1 h 58 min
  • Bit rate mode          : Constant
  • Bit rate           : 896 kb/s
  • Channel(s)           : 8 channels
  • Channel layout         : L R C LFE Ls Rs Lb Rb
  • Sampling rate          : 48.0 kHz
  • Frame rate           : 31.250 FPS (1536 SPF)
  • Compression mode         : Lossy
  • Stream size          : 758 MiB (4%)
  • Title            : The.Lion.King.2019.1080p.3D.BluRay.Half-SBS.x264.TrueHD.7.1.Atmos-FGT
  • Language           : German
  • Service kind         : Complete Main
  • Default            : No
  • Forced           : No
  • Text #1
  • ID             : 8
  • Format           : PGS
  • Muxing mode          : zlib
  • Codec ID           : S_HDMV/PGS
  • Codec ID/Info          : Picture based subtitle format used on BDs/HD-DVDs
  • Duration           : 1 h 52 min
  • Bit rate           : 50.2 kb/s
  • Count of elements        : 3420
  • Stream size          : 40.2 MiB (0%)
  • Title            : English-PGS
  • Language           : English
  • Default            : Yes
  • Forced           : No
  • Text #2
  • ID             : 9
  • Format           : PGS
  • Muxing mode          : zlib
  • Codec ID           : S_HDMV/PGS
  • Codec ID/Info          : Picture based subtitle format used on BDs/HD-DVDs
  • Duration           : 1 h 55 min
  • Bit rate           : 35.1 kb/s
  • Count of elements        : 2556
  • Stream size          : 29.1 MiB (0%)
  • Title            : French-PGS
  • Language           : French
  • Default            : No
  • Forced           : No
  • Text #3
  • ID             : 10
  • Format           : PGS
  • Muxing mode          : zlib
  • Codec ID           : S_HDMV/PGS
  • Codec ID/Info          : Picture based subtitle format used on BDs/HD-DVDs
  • Duration           : 1 h 55 min
  • Bit rate           : 39.2 kb/s
  • Count of elements        : 2850
  • Stream size          : 32.5 MiB (0%)
  • Title            : German-PGS
  • Language           : German
  • Default            : No
  • Forced           : No
  • Text #4
  • ID             : 11
  • Format           : PGS
  • Muxing mode          : zlib
  • Codec ID           : S_HDMV/PGS
  • Codec ID/Info          : Picture based subtitle format used on BDs/HD-DVDs
  • Duration           : 1 h 55 min
  • Bit rate           : 37.0 kb/s
  • Count of elements        : 2704
  • Stream size          : 30.7 MiB (0%)
  • Title            : Spanish-PGS
  • Language           : Spanish
  • Default            : No
  • Forced           : No
  • Text #5
  • ID             : 12
  • Format           : PGS
  • Muxing mode          : zlib
  • Codec ID           : S_HDMV/PGS
  • Codec ID/Info          : Picture based subtitle format used on BDs/HD-DVDs
  • Duration           : 1 h 43 min
  • Bit rate           : 30 b/s
  • Count of elements        : 4
  • Stream size          : 23.3 KiB (0%)
  • Title            : French-FORCED-PGS
  • Language           : French
  • Default            : No
  • Forced           : No
  • Text #6
  • ID             : 13
  • Format           : PGS
  • Muxing mode          : zlib
  • Codec ID           : S_HDMV/PGS
  • Codec ID/Info          : Picture based subtitle format used on BDs/HD-DVDs
  • Duration           : 4 s 588 ms
  • Bit rate           : 42.6 kb/s
  • Count of elements        : 2
  • Stream size          : 23.9 KiB (0%)
  • Title            : German-FORCED-PGS
  • Language           : German
  • Default            : No
  • Forced           : No
  • Text #7
  • ID             : 14
  • Format           : PGS
  • Muxing mode          : zlib
  • Codec ID           : S_HDMV/PGS
  • Codec ID/Info          : Picture based subtitle format used on BDs/HD-DVDs
  • Duration           : 5 s 422 ms
  • Bit rate           : 17.5 kb/s
  • Count of elements        : 2
  • Stream size          : 11.6 KiB (0%)
  • Title            : Spanish-FORCED-PGS
  • Language           : Spanish
  • Default            : No
  • Forced           : No
  • Menu
  • 00:00:00.000         : en:Chapter 01
  • 00:04:50.498         : en:Chapter 02
  • 00:10:51.067         : en:Chapter 03
  • 00:17:47.691         : en:Chapter 04
  • 00:23:53.014         : en:Chapter 05
  • 00:30:00.131         : en:Chapter 06
  • 00:33:05.066         : en:Chapter 07
  • 00:37:09.310         : en:Chapter 08
  • 00:43:42.911         : en:Chapter 09
  • 00:50:47.335         : en:Chapter 10
  • 00:55:02.716         : en:Chapter 11
  • 00:59:48.459         : en:Chapter 12
  • 01:06:27.233         : en:Chapter 13
  • 01:14:32.092         : en:Chapter 14
  • 01:18:26.410         : en:Chapter 15
  • 01:23:07.899         : en:Chapter 16
  • 01:28:04.654         : en:Chapter 17
  • 01:33:10.876         : en:Chapter 18
  • 01:37:13.744         : en:Chapter 19
  • 01:44:39.189         : en:Chapter 20
  • 01:47:47.335         : en:Chapter 21












分享到:  QQ好友和群QQ好友和群
收藏收藏
字幕下載網站---點這里進入
回復

使用道具 舉報

您需要登錄后才可以回帖 登錄 | 立即注冊

本版積分規則

QQ|Archiver|手機版|小黑屋|藍光電影網

GMT+8, 2019-11-25 04:13 , Processed in 0.053524 second(s), 20 queries .

Powered by Discuz! X3.4

© 2001-2017 Comsenz Inc.

快速回復 返回頂部 返回列表
辽宁11选5前3直