藍光電影網

 找回密碼
 立即注冊

QQ登錄

只需一步,快速開始

搜索
熱搜: 活動 交友 discuz
查看: 82|回復: 0
打印 上一主題 下一主題

[REMUX.HEVC] 阿波羅11號/阿波羅登月 Apollo.11.2019.DOCU.2160p.BluRay.REMUX.HEVC.DTS-HD.MA.5.1-FGT 53.23GB

[復制鏈接]

3萬

主題

3萬

帖子

4萬

積分

管理員

Rank: 9Rank: 9Rank: 9

積分
46044
跳轉到指定樓層
1#
發表于 2019-11-14 15:45:50 | 只看該作者 |只看大圖 回帖獎勵 |倒序瀏覽 |閱讀模式


譯  名 阿波羅11號 / 阿波羅登月
片  名 Apollo 11
年  代 2019
產  地 美國
類  別 記載片
語  言 英語
上映日期 2019-01-24(圣丹斯電影節) / 2019-03-01(美國)
IMDb評分8.4/10 from 3614 users
IMDb鏈接http://www.imdb.com/title/tt8760684
豆瓣評分 8.8/10 from 947 users
豆瓣鏈接 https://movie.douban.com/subject/30390701/
片  長 90分鐘
導  演 托德·道格拉斯·米勒 Todd Douglas Miller
主  演 巴茲·奧德林 Buzz Aldrin
      瓊·安·阿徹 Joan Ann Archer
      珍妮特·阿姆斯特朗 Janet Armstrong
      尼爾·阿姆斯特朗 Neil Armstrong
      約翰尼·卡森 Johnny Carson
      克利福德·E·查爾斯沃思 Clifford E. Charlesworth
      邁克爾·柯林斯 Michael Collins
      沃爾特·克朗凱特 Walter Cronkite
      查爾斯·杜克 Charles Duke
      吉因·克蘭茲 Gene Kranz
      吉姆·洛威爾 Jim Lovell
      格林·倫尼 Glynn Lunney
      理查德·尼克松 Richard Nixon
      迪克·斯雷頓 Deke Slayton


標  簽 記載片 | 美國 | 2019 | 登月 | 歷史 | 阿波羅 | 科技 | IMAX

簡  介

  這部93分鐘的記載片由Neon和CNN Film公司出品,采用了初次發現的65毫米大畫幅膠卷拍攝的影象材料和跨越11,000小時的原始音頻材料,為人類歷史上最具標志性和歷史性的時辰展現全新的視角。 《阿波羅11號》用電影的方式報告了這一航天傳奇,”

  • Video
  • ID             : 1
  • Format           : HEVC
  • Format/Info          : High Efficiency Video Coding
  • Format profile         : Main [email protected]@High
  • HDR format           : SMPTE ST 2086, HDR10 compatible
  • Codec ID           : V_MPEGH/ISO/HEVC
  • Duration           : 1 h 32 min
  • Bit rate           : 79.0 Mb/s
  • Width            : 3 840 pixels
  • Height           : 2 160 pixels
  • Display aspect ratio       : 16:9
  • Frame rate mode        : Constant
  • Frame rate           : 23.976 (24000/1001) FPS
  • Color space          : YUV
  • Chroma subsampling       : 4:2:0 (Type 2)
  • Bit depth          : 10 bits
  • Bits/(Pixel*Frame)       : 0.397
  • Stream size          : 51.3 GiB (96%)
  • Title            : Apollo.11.2019.DOCU.2160p.BluRay.REMUX.HEVC.DTS-HD.MA.5.1-FGT
  • Writing library        : ATEME Titan File 3.8.22 (4.8.22.4)
  • Language           : English
  • Default            : No
  • Forced           : No
  • Color range          : Limited
  • Color primaries        : BT.2020
  • Transfer characteristics     : PQ
  • Matrix coefficients        : BT.2020 non-constant
  • Mastering display color primaries  : BT.2020
  • Mastering display luminance    : min: 0.0050 cd/m2, max: 1000 cd/m2
  • Maximum Content Light Level    : 1000 cd/m2
  • Maximum Frame-Average Light Level  : 300 cd/m2
  • Audio #1
  • ID             : 2
  • Format           : DTS XLL
  • Format/Info          : Digital Theater Systems
  • Commercial name        : DTS-HD Master Audio
  • Codec ID           : A_DTS
  • Duration           : 1 h 37 min
  • Bit rate mode          : Variable
  • Bit rate           : 1 847 kb/s
  • Channel(s)           : 6 channels
  • Channel layout         : C L R Ls Rs LFE
  • Sampling rate          : 48.0 kHz
  • Frame rate           : 93.750 FPS (512 SPF)
  • Bit depth          : 16 bits
  • Compression mode         : Lossless
  • Stream size          : 1.26 GiB (2%)
  • Title            : Apollo.11.2019.DOCU.2160p.BluRay.REMUX.HEVC.DTS-HD.MA.5.1-FGT
  • Language           : English
  • Default            : Yes
  • Forced           : No
  • Audio #2
  • ID             : 3
  • Format           : DTS XLL
  • Format/Info          : Digital Theater Systems
  • Commercial name        : DTS-HD Master Audio
  • Codec ID           : A_DTS
  • Duration           : 1 h 37 min
  • Bit rate mode          : Variable
  • Bit rate           : 959 kb/s
  • Channel(s)           : 2 channels
  • Channel layout         : L R
  • Sampling rate          : 48.0 kHz
  • Frame rate           : 93.750 FPS (512 SPF)
  • Bit depth          : 16 bits
  • Compression mode         : Lossless
  • Stream size          : 671 MiB (1%)
  • Title            : Apollo.11.2019.DOCU.2160p.BluRay.REMUX.HEVC.DTS-HD.MA.5.1-FGT
  • Language           : English
  • Default            : No
  • Forced           : No
  • Text #1
  • ID             : 4
  • Format           : UTF-8
  • Codec ID           : S_TEXT/UTF8
  • Codec ID/Info          : UTF-8 Plain Text
  • Duration           : 1 h 29 min
  • Bit rate           : 88 b/s
  • Count of elements        : 1324
  • Stream size          : 58.6 KiB (0%)
  • Title            : English-SRT
  • Language           : English
  • Default            : Yes
  • Forced           : No
  • Text #2
  • ID             : 5
  • Format           : UTF-8
  • Codec ID           : S_TEXT/UTF8
  • Codec ID/Info          : UTF-8 Plain Text
  • Duration           : 1 h 31 min
  • Bit rate           : 89 b/s
  • Count of elements        : 1367
  • Stream size          : 59.4 KiB (0%)
  • Title            : English-SDH-SRT
  • Language           : English
  • Default            : No
  • Forced           : No
  • Text #3
  • ID             : 6
  • Format           : PGS
  • Muxing mode          : zlib
  • Codec ID           : S_HDMV/PGS
  • Codec ID/Info          : Picture based subtitle format used on BDs/HD-DVDs
  • Duration           : 1 h 31 min
  • Bit rate           : 68.7 kb/s
  • Count of elements        : 2738
  • Stream size          : 45.2 MiB (0%)
  • Title            : English-PGS
  • Language           : English
  • Default            : No
  • Forced           : No
  • Menu
  • 00:00:00.000         : en:Chapter 01
  • 00:07:16.352         : en:Chapter 02
  • 00:14:33.914         : en:Chapter 03
  • 00:22:30.098         : en:Chapter 04
  • 00:29:19.591         : en:Chapter 05
  • 00:35:45.059         : en:Chapter 06
  • 00:43:36.238         : en:Chapter 07
  • 00:52:15.715         : en:Chapter 08
  • 01:02:03.010         : en:Chapter 09
  • 01:12:37.478         : en:Chapter 10
  • 01:20:29.783         : en:Chapter 11
  • 01:29:31.199         : en:Chapter 12











分享到:  QQ好友和群QQ好友和群
收藏收藏
字幕下載網站---點這里進入
回復

使用道具 舉報

您需要登錄后才可以回帖 登錄 | 立即注冊

本版積分規則

QQ|Archiver|手機版|小黑屋|藍光電影網

GMT+8, 2019-11-25 04:15 , Processed in 0.057484 second(s), 20 queries .

Powered by Discuz! X3.4

© 2001-2017 Comsenz Inc.

快速回復 返回頂部 返回列表
辽宁11选5前3直