藍光電影網

 找回密碼
 立即注冊

QQ登錄

只需一步,快速開始

搜索
熱搜: 活動 交友 discuz
查看: 82|回復: 0
打印 上一主題 下一主題

[2160p-WEB] 響尾蛇/響尾蛇之吻 Rattlesnake.2019.RERIP.2160p.NF.WEBRip.x265.10bit.HDR.DDP5.1.Atmos-iNTENSO 11.56GB

[復制鏈接]

3萬

主題

3萬

帖子

4萬

積分

管理員

Rank: 9Rank: 9Rank: 9

積分
46044
跳轉到指定樓層
1#
發表于 2019-11-14 15:45:16 | 只看該作者 |只看大圖 回帖獎勵 |倒序瀏覽 |閱讀模式


譯  名 響尾蛇 / 響尾蛇之吻(港) / 蛇殺(臺)
片  名 Rattlesnake
年  代 2019
產  地 美國
類  別 劇情 / 懸疑 / 驚悚 / 可駭
語  言 英語
上映日期 2019-10-25(美國)
IMDb鏈接https://www.imdb.com/title/tt9257484
豆瓣評分 0/10 from 0 users
豆瓣鏈接 https://movie.douban.com/subject/33406812/
片  長 85分鐘
導  演 扎克·希爾迪奇 Zak Hilditch
編  劇 扎克·希爾迪奇 Zak Hilditch
主  演 卡門·艾喬戈 Carmen Ejogo
     西奧·羅西 Theo Rossi
     艾瑪·格林威爾 Emma Greenwell
     喬伊·雅各布森 Joy Jacobson
     大衛·佑 David Yow
     黛布瑞安娜·曼西尼 Debrianna Mansini
     斯蒂芬妮·希爾 Stephanie Hill
     曼尼·魯比奧 Manny Rubio
     布魯斯·戴維斯 Bruce Davis
     Richard Lippert
     Arianna Ortiz
     Emily Isabella Peck
     Catherine Haun
     Sean Dillingham
     Jenna Doolittle


標  簽 驚悚 | 美國 | 懸疑 | 美國電影 | 犯罪 | 卡門·艾喬戈 | 劇情 | 2019

簡  介

  卡特里娜是一位單身母親,她帶著年幼的女兒克拉拉橫穿全國,預備起頭新的生活。可是他們的車卻在一個渺無人煙的地方拋錨。在卡特里娜更換輪胎時,克拉拉從沙漠公路上走遠,并被一條有毒的響尾蛇咬傷。急于拯救女兒生命的卡特里娜接管了一位奧秘女子的幫助。這名女子奇跡般治愈了克拉拉,但卻要求卡特里娜去殺掉一個陌生人作為抵償。為避免女兒在日落時再次身陷險境,卡特里娜必須盡快處理一個道德困難:誰該當活下來,誰又活該去?
  • Video
  • ID             : 1
  • Format           : HEVC
  • Format/Info          : High Efficiency Video Coding
  • Format profile         : Main [email protected]@High
  • HDR format           : SMPTE ST 2086, HDR10 compatible
  • Codec ID           : V_MPEGH/ISO/HEVC
  • Duration           : 1 h 24 min
  • Bit rate           : 18.5 Mb/s
  • Width            : 3 840 pixels
  • Height           : 1 600 pixels
  • Display aspect ratio       : 2.40:1
  • Frame rate mode        : Constant
  • Frame rate           : 23.976 (24000/1001) FPS
  • Color space          : YUV
  • Chroma subsampling       : 4:2:0 (Type 2)
  • Bit depth          : 10 bits
  • Bits/(Pixel*Frame)       : 0.125
  • Stream size          : 10.9 GiB (96%)
  • Writing library        : x265 3.0_Audcbec33bfb0f:[Windows][GCC 8.2.1][64 bit] 10bit
  • Encoding settings        : cpuid=1111039 / frame-threads=5 / numa-pools=32,32 / wpp / no-pmode / no-pme / no-psnr / no-ssim / log-level=2 / input-csp=1 / input-res=3840x1600 / interlace=0 / total-frames=122205 / level-idc=51 / high-tier=1 / uhd-bd=0 / ref=4 / no-allow-non-conformance / repeat-headers / annexb / no-aud / no-hrd / info / hash=0 / no-temporal-layers / open-gop / min-keyint=24 / keyint=240 / gop-lookahead=0 / bframes=11 / b-adapt=2 / b-pyramid / bframe-bias=0 / rc-lookahead=40 / lookahead-slices=4 / scenecut=40 / radl=0 / no-splice / no-intra-refresh / ctu=64 / min-cu-size=8 / rect / no-amp / max-tu-size=32 / tu-inter-depth=1 / tu-intra-depth=1 / limit-tu=0 / rdoq-level=2 / dynamic-rd=0.00 / no-ssim-rd / signhide / no-tskip / nr-intra=0 / nr-inter=0 / no-constrained-intra / no-strong-intra-smoothing / max-merge=3 / limit-refs=3 / limit-modes / me=2 / subme=6 / merange=57 / temporal-mvp / weightp / no-weightb / no-analyze-src-pics / deblock=-3:-3 / no-sao / no-sao-non-deblock / rd=4 / no-early-skip / no-rskip / no-fast-intra / no-tskip-fast / no-cu-lossless / no-b-intra / no-splitrd-skip / rdpenalty=0 / psy-rd=4.00 / psy-rdoq=10.00 / no-rd-refine / no-lossless / cbqpoffs=0 / crqpoffs=0 / rc=crf / crf=17.0 / qcomp=0.60 / qpstep=4 / stats-write=0 / stats-read=0 / vbv-maxrate=160000 / vbv-bufsize=160000 / vbv-init=0.9 / crf-max=0.0 / crf-min=0.0 / ipratio=1.25 / pbratio=1.20 / aq-mode=3 / aq-strength=0.70 / no-cutree / zone-count=0 / no-strict-cbr / qg-size=32 / rc-grain / qpmax=69 / qpmin=0 / no-const-vbv / sar=1 / overscan=0 / videoformat=5 / range=0 / colorprim=9 / transfer=16 / colormatrix=9 / chromaloc=1 / chromaloc-top=2 / chromaloc-bottom=2 / display-window=0 / master-display=G(13250,34500)B(7500,3000)R(34000,16000)WP(15635,16450)L(40000000,50) / max-cll=2423,335 / min-luma=0 / max-luma=1023 / log2-max-poc-lsb=8 / vui-timing-info / vui-hrd-info / slices=1 / no-opt-qp-pps / no-opt-ref-list-length-pps / no-multi-pass-opt-rps / scenecut-bias=0.05 / no-opt-cu-delta-qp / no-aq-motion / hdr / hdr-opt / no-dhdr10-opt / no-idr-recovery-sei / analysis-reuse-level=5 / scale-factor=0 / refine-intra=0 / refine-inter=0 / refine-mv=0 / refine-ctu-distortion=0 / no-limit-sao / ctu-info=0 / no-lowpass-dct / refine-analysis-type=0 / copy-pic=1 / max-ausize-factor=1.0 / no-dynamic-refine / no-single-sei / no-hevc-aq / qp-adaptation-range=1.00
  • Default            : Yes
  • Forced           : No
  • Color range          : Limited
  • Color primaries        : BT.2020
  • Transfer characteristics     : PQ
  • Matrix coefficients        : BT.2020 non-constant
  • Mastering display color primaries  : Display P3
  • Mastering display luminance    : min: 0.0050 cd/m2, max: 4000 cd/m2
  • Maximum Content Light Level    : 2423 cd/m2
  • Maximum Frame-Average Light Level  : 335 cd/m2
  • Audio
  • ID             : 2
  • Format           : E-AC-3 JOC
  • Format/Info          : Enhanced AC-3 with Joint Object Coding
  • Commercial name        : Dolby Digital Plus with Dolby Atmos
  • Codec ID           : A_EAC3
  • Duration           : 1 h 25 min
  • Bit rate mode          : Constant
  • Bit rate           : 768 kb/s
  • Channel(s)           : 6 channels
  • Channel layout         : L R C LFE Ls Rs
  • Sampling rate          : 48.0 kHz
  • Frame rate           : 31.250 FPS (1536 SPF)
  • Compression mode         : Lossy
  • Delay relative to video      : 306 ms
  • Stream size          : 471 MiB (4%)
  • Title            : English
  • Language           : English
  • Service kind         : Complete Main
  • Default            : Yes
  • Forced           : No
  • Complexity index         : 16
  • Number of dynamic objects      : 15
  • Bed channel count        : 1 channel
  • Bed channel configuration      : LFE
  • Text
  • ID             : 3
  • Format           : UTF-8
  • Codec ID           : S_TEXT/UTF8
  • Codec ID/Info          : UTF-8 Plain Text
  • Duration           : 1 h 23 min
  • Bit rate           : 37 b/s
  • Count of elements        : 832
  • Stream size          : 23.1 KiB (0%)
  • Title            : English [SDH]
  • Language           : English
  • Default            : No
  • Forced           : No










分享到:  QQ好友和群QQ好友和群
收藏收藏
字幕下載網站---點這里進入
回復

使用道具 舉報

您需要登錄后才可以回帖 登錄 | 立即注冊

本版積分規則

QQ|Archiver|手機版|小黑屋|藍光電影網

GMT+8, 2019-11-25 04:18 , Processed in 0.055652 second(s), 20 queries .

Powered by Discuz! X3.4

© 2001-2017 Comsenz Inc.

快速回復 返回頂部 返回列表
辽宁11选5前3直