藍光電影網

 找回密碼
 立即注冊

QQ登錄

只需一步,快速開始

搜索
熱搜: 活動 交友 discuz
查看: 83|回復: 0
打印 上一主題 下一主題

[2160p-WEB] 蘭開斯特之王/國王 The.King.2019.2160p.NF.WEBRip.x265.10bit.HDR.DDP5.1.Atmos-iNTENSO 20.71GB

[復制鏈接]

3萬

主題

3萬

帖子

4萬

積分

管理員

Rank: 9Rank: 9Rank: 9

積分
46044
跳轉到指定樓層
1#
發表于 2019-11-14 15:43:29 | 只看該作者 |只看大圖 回帖獎勵 |倒序瀏覽 |閱讀模式


譯  名 蘭開斯特之王 / 國王
片  名 The King
年  代 2019
產  地 澳大利亞 / 美國
類  別 劇情 / 列傳 / 歷史
語  言 英語
上映日期 2019-09-02(威尼斯電影節) / 2019-10-11(美國) / 2019-11-01(Netflix)
IMDb評分7.0/10 from 872 users
IMDb鏈接https://www.imdb.com/title/tt7984766
豆瓣評分 6.2/10 from 103 users
豆瓣鏈接 https://movie.douban.com/subject/30143698/
片  長 133分鐘
導  演 大衛·米奇歐德 David Mich?d
編  劇 大衛·米奇歐德 David Mich?d / 喬爾·埃哲頓 Joel Edgerton
主  演 蒂莫西·柴勒梅德 Timothée Chalamet
     羅伯特·帕丁森 Robert Pattinson
     本·門德爾森 Ben Mendelsohn
     喬爾·埃哲頓 Joel Edgerton
     迪恩·查爾斯·查普曼 Dean-Charles Chapman
     莉莉-羅絲·德普 Lily-Rose Melody Depp
     西恩·哈里斯 Sean Harris
     托馬辛·麥肯齊 Thomasin McKenzie
     湯姆·格林-卡尼 Tom Glynn-Carney
     愛德華·阿什利 Edward Ashley
     安德魯·哈維爾 Andrew Havill
     尼克·威特曼 Nick Wittman
     斯蒂文·埃爾德 Steven Elder
     菲利普·羅施 Philip Rosch
     羅德里克·希爾 Roderick Hill
     約翰·泰勒 John Taylor
     塞德里克·西拉泰爾 Cedric Cirotteau
     艾培德·安托利克 árpád Antolik
     Ivan Kaye
     Jack Bandeira


標  簽 甜茶 | 歷史 | TimotheeChalamet | 英國 | 英國皇室 | Timothée | 美國 | Timothee

簡  介

  蒂莫西·柴勒梅德將加盟新片[蘭開斯特之王](The King,暫譯),出演男配角年輕的亨利五世。亨利五世為英格蘭蘭開斯特王朝國王,在他長久的九年統治時代,他獲得了中世紀任何一位英格蘭國王都未獲得過的軍事光輝。本片由布拉德·皮特公司Plan B建造,大衛·米奇歐德([動物王國])執導,米奇歐德也將與喬爾·埃哲頓擔任編劇,計劃6月開機。
  • Video
  • ID             : 1
  • Format           : HEVC
  • Format/Info          : High Efficiency Video Coding
  • Format profile         : Main [email protected]@High
  • HDR format           : SMPTE ST 2086, HDR10 compatible
  • Codec ID           : V_MPEGH/ISO/HEVC
  • Duration           : 2 h 19 min
  • Bit rate           : 20.3 Mb/s
  • Width            : 3 840 pixels
  • Height           : 1 604 pixels
  • Display aspect ratio       : 2.40:1
  • Frame rate mode        : Constant
  • Frame rate           : 24.000 FPS
  • Color space          : YUV
  • Chroma subsampling       : 4:2:0 (Type 2)
  • Bit depth          : 10 bits
  • Bits/(Pixel*Frame)       : 0.137
  • Stream size          : 19.8 GiB (96%)
  • Writing library        : x265 3.14f6dde51a5db:[Windows][GCC 6.3.0][64 bit] 10bit
  • Encoding settings        : cpuid=1049583 / frame-threads=5 / numa-pools=32 / wpp / no-pmode / no-pme / no-psnr / no-ssim / log-level=2 / input-csp=1 / input-res=3840x1604 / interlace=0 / total-frames=201025 / level-idc=51 / high-tier=1 / uhd-bd=0 / ref=4 / no-allow-non-conformance / repeat-headers / annexb / no-aud / no-hrd / info / hash=0 / no-temporal-layers / open-gop / min-keyint=24 / keyint=240 / gop-lookahead=0 / bframes=11 / b-adapt=2 / b-pyramid / bframe-bias=0 / rc-lookahead=40 / lookahead-slices=4 / scenecut=40 / radl=0 / no-splice / no-intra-refresh / ctu=64 / min-cu-size=8 / rect / no-amp / max-tu-size=32 / tu-inter-depth=1 / tu-intra-depth=1 / limit-tu=0 / rdoq-level=2 / dynamic-rd=0.00 / no-ssim-rd / signhide / no-tskip / nr-intra=0 / nr-inter=0 / no-constrained-intra / no-strong-intra-smoothing / max-merge=3 / limit-refs=3 / limit-modes / me=2 / subme=6 / merange=57 / temporal-mvp / weightp / no-weightb / no-analyze-src-pics / deblock=-3:-3 / no-sao / no-sao-non-deblock / rd=4 / no-early-skip / no-rskip / no-fast-intra / no-tskip-fast / no-cu-lossless / no-b-intra / no-splitrd-skip / rdpenalty=0 / psy-rd=4.00 / psy-rdoq=10.00 / no-rd-refine / no-lossless / cbqpoffs=0 / crqpoffs=0 / rc=crf / crf=17.0 / qcomp=0.60 / qpstep=4 / stats-write=0 / stats-read=0 / vbv-maxrate=160000 / vbv-bufsize=160000 / vbv-init=0.9 / crf-max=0.0 / crf-min=0.0 / ipratio=1.25 / pbratio=1.20 / aq-mode=3 / aq-strength=0.70 / no-cutree / zone-count=0 / no-strict-cbr / qg-size=32 / rc-grain / qpmax=69 / qpmin=0 / no-const-vbv / sar=1 / overscan=0 / videoformat=5 / range=0 / colorprim=9 / transfer=16 / colormatrix=9 / chromaloc=1 / chromaloc-top=2 / chromaloc-bottom=2 / display-window=0 / master-display=G(13250,34500)B(7500,3000)R(34000,16000)WP(15635,16450)L(10000000,01)cll=1952,97 / min-luma=0 / max-luma=1023 / log2-max-poc-lsb=8 / vui-timing-info / vui-hrd-info / slices=1 / no-opt-qp-pps / no-opt-ref-list-length-pps / no-multi-pass-opt-rps / scenecut-bias=0.05 / no-opt-cu-delta-qp / no-aq-motion / hdr / hdr-opt / no-dhdr10-opt / no-idr-recovery-sei / analysis-reuse-level=5 / scale-factor=0 / refine-intra=0 / refine-inter=0 / refine-mv=0 / refine-ctu-distortion=0 / no-limit-sao / ctu-info=0 / no-lowpass-dct / refine-analysis-type=0 / copy-pic=1 / max-ausize-factor=1.0 / no-dynamic-refine / no-single-sei / no-hevc-aq / no-svt / no-field / qp-adaptation-range=1.00
  • Default            : Yes
  • Forced           : No
  • Color range          : Limited
  • Color primaries        : BT.2020
  • Transfer characteristics     : PQ
  • Matrix coefficients        : BT.2020 non-constant
  • Mastering display color primaries  : Display P3
  • Mastering display luminance    : min: 0.0001 cd/m2, max: 1000 cd/m2
  • Maximum Content Light Level    : 1952 cd/m2
  • Maximum Frame-Average Light Level  : 97 cd/m2
  • Audio
  • ID             : 2
  • Format           : E-AC-3 JOC
  • Format/Info          : Enhanced AC-3 with Joint Object Coding
  • Commercial name        : Dolby Digital Plus with Dolby Atmos
  • Codec ID           : A_EAC3
  • Duration           : 2 h 20 min
  • Bit rate mode          : Constant
  • Bit rate           : 768 kb/s
  • Channel(s)           : 6 channels
  • Channel layout         : L R C LFE Ls Rs
  • Sampling rate          : 48.0 kHz
  • Frame rate           : 31.250 FPS (1536 SPF)
  • Compression mode         : Lossy
  • Delay relative to video      : 16 ms
  • Stream size          : 772 MiB (4%)
  • Language           : English
  • Service kind         : Complete Main
  • Default            : No
  • Forced           : No
  • Complexity index         : 16
  • Number of dynamic objects      : 15
  • Bed channel count        : 1 channel
  • Bed channel configuration      : LFE
  • Text #1
  • ID             : 3
  • Format           : UTF-8
  • Codec ID           : S_TEXT/UTF8
  • Codec ID/Info          : UTF-8 Plain Text
  • Duration           : 1 h 11 min
  • Bit rate           : 1 b/s
  • Count of elements        : 36
  • Stream size          : 991 Bytes (0%)
  • Title            : Englisch [Forced]
  • Language           : English
  • Default            : Yes
  • Forced           : Yes
  • Text #2
  • ID             : 4
  • Format           : UTF-8
  • Codec ID           : S_TEXT/UTF8
  • Codec ID/Info          : UTF-8 Plain Text
  • Duration           : 2 h 10 min
  • Bit rate           : 50 b/s
  • Count of elements        : 1814
  • Stream size          : 48.2 KiB (0%)
  • Title            : Englisch [SDH]
  • Language           : English
  • Default            : No
  • Forced           : No











分享到:  QQ好友和群QQ好友和群
收藏收藏
字幕下載網站---點這里進入
回復

使用道具 舉報

您需要登錄后才可以回帖 登錄 | 立即注冊

本版積分規則

QQ|Archiver|手機版|小黑屋|藍光電影網

GMT+8, 2019-11-25 04:00 , Processed in 0.058634 second(s), 20 queries .

Powered by Discuz! X3.4

© 2001-2017 Comsenz Inc.

快速回復 返回頂部 返回列表
辽宁11选5前3直