藍光電影網

 找回密碼
 立即注冊

QQ登錄

只需一步,快速開始

搜索
熱搜: 活動 交友 discuz
查看: 72|回復: 0
打印 上一主題 下一主題

[8bit.SDR] 再造戰士/宇宙戰士 Universal.Soldier.1992.2160p.BluRay.x264.8bit.SDR.DTS-HD.MA.5.1-SWTYBLZ 48.83GB

[復制鏈接]

3萬

主題

3萬

帖子

4萬

積分

管理員

Rank: 9Rank: 9Rank: 9

積分
46044
跳轉到指定樓層
1#
發表于 2019-11-14 15:43:02 | 只看該作者 |只看大圖 回帖獎勵 |倒序瀏覽 |閱讀模式


譯  名 再造戰士 / 宇宙戰士 / 魔鬼號令
片  名 Universal Soldier
年  代 1992
產  地 美國
類  別 劇情 / 行動 / 科幻
語  言 英語
上映日期 1992-07-10
IMDb評分6.0/10 from 78583 users
IMDb鏈接https://www.imdb.com/title/tt0105698
豆瓣評分 6.6/10 from 2917 users
豆瓣鏈接 https://movie.douban.com/subject/1298717/
片  長 102 分鐘
導  演 羅蘭·艾默里奇 Roland Emmerich
編  劇 Christopher Leitch / Richard Rothstein
主  演 杜夫·朗格 Dolph Lundgren
     尚格·云頓 Jean-Claude Van Damme
     艾利·沃克 Ally Walker


標  簽 科幻 | 行動 | 美國 | 尚格·云頓 | 1992 | 美國電影 | 暴力 | 行動片

簡  介

  越戰后,美國政府停止了一項絕密的科妹計劃。科妹家們將越戰中犧牲的兵士的尸身冰凍起來,植入電腦芯片,輸入戰爭法式,講他們革新成為新一代的戰爭機械人――“宇宙戰士”,這些機械人沒有感情和之前的記憶,只要冰冷的殺戮兵器。兵士盧克(尚格?云頓 Jean-Claude Van Damme 飾)和班長安德魯(杜夫?朗格 Dolph Lundgren 飾)就是其中兩員,他們被派往加入一場新的戰爭。戰爭中,兩人的芯片忽然出錯,令兩人都規復了之前的記憶。
  盧克記起越戰昔時正是安德魯忽然性情大變將部屬和俘虜都殺光,誤闖美軍基地的女記者羅伯斯(艾麗?沃克 Ally Walker 飾)意圍得悉了美軍這一奧秘。原本羅伯斯難逃一死,關鍵時辰盧克救走了她。因而,美軍派出一切的宇宙戰士起頭追殺二人。
  • Video
  • ID             : 1
  • Format           : AVC
  • Format/Info          : Advanced Video Codec
  • Format profile         : [email protected]
  • Format settings        : CABAC / 5 Ref Frames
  • Format settings, CABAC       : Yes
  • Format settings, Reference frames  : 5 frames
  • Codec ID           : V_MPEG4/ISO/AVC
  • Duration           : 1 h 43 min
  • Bit rate           : 62.3 Mb/s
  • Width            : 3 840 pixels
  • Height           : 1 634 pixels
  • Display aspect ratio       : 2.35:1
  • Frame rate mode        : Constant
  • Frame rate           : 24.000 FPS
  • Color space          : YUV
  • Chroma subsampling       : 4:2:0
  • Bit depth          : 8 bits
  • Scan type          : Progressive
  • Bits/(Pixel*Frame)       : 0.413
  • Stream size          : 44.9 GiB (93%)
  • Title            : Universal.Soldier.1992.2160p.BluRay.x264.8bit.SDR.DTS-HD.MA.5.1-SWTYBLZ
  • Writing library        : x264 core 157 r2935 545de2f
  • Encoding settings        : cabac=1 / ref=5 / deblock=1:-1:-1 / analyse=0x3:0x113 / me=umh / subme=10 / psy=1 / psy_rd=1.00:0.15 / mixed_ref=1 / me_range=48 / chroma_me=1 / trellis=2 / 8x8dct=1 / cqm=0 / deadzone=21,11 / fast_pskip=1 / chroma_qp_offset=-3 / threads=48 / lookahead_threads=4 / sliced_threads=0 / nr=0 / decimate=0 / interlaced=0 / bluray_compat=0 / constrained_intra=0 / bframes=3 / b_pyramid=2 / b_adapt=2 / b_bias=0 / direct=3 / weightb=1 / open_gop=0 / weightp=2 / keyint=250 / keyint_min=24 / scenecut=40 / intra_refresh=0 / rc_lookahead=50 / rc=crf / mbtree=1 / crf=20.0 / qcomp=0.60 / qpmin=0 / qpmax=69 / qpstep=4 / ip_ratio=1.40 / aq=1:1.00
  • Language           : English
  • Default            : Yes
  • Forced           : No
  • Audio #1
  • ID             : 2
  • Format           : DTS XLL
  • Format/Info          : Digital Theater Systems
  • Commercial name        : DTS-HD Master Audio
  • Codec ID           : A_DTS
  • Duration           : 1 h 43 min
  • Bit rate mode          : Variable
  • Bit rate           : 4 287 kb/s
  • Channel(s)           : 6 channels
  • Channel layout         : C L R Ls Rs LFE
  • Sampling rate          : 48.0 kHz
  • Frame rate           : 93.750 FPS (512 SPF)
  • Bit depth          : 24 bits
  • Compression mode         : Lossless
  • Stream size          : 3.09 GiB (6%)
  • Title            : Universal.Soldier.1992.2160p.BluRay.x264.8bit.SDR.DTS-HD.MA.5.1-SWTYBLZ
  • Language           : English
  • Default            : Yes
  • Forced           : No
  • Audio #2
  • ID             : 3
  • Format           : AC-3
  • Format/Info          : Audio Coding 3
  • Commercial name        : Dolby Digital
  • Codec ID           : A_AC3
  • Duration           : 1 h 43 min
  • Bit rate mode          : Constant
  • Bit rate           : 640 kb/s
  • Channel(s)           : 6 channels
  • Channel layout         : L R C LFE Ls Rs
  • Sampling rate          : 48.0 kHz
  • Frame rate           : 31.250 FPS (1536 SPF)
  • Bit depth          : 16 bits
  • Compression mode         : Lossy
  • Stream size          : 473 MiB (1%)
  • Title            : Universal.Soldier.1992.2160p.BluRay.x264.8bit.SDR.DTS-HD.MA.5.1-SWTYBLZ
  • Language           : English
  • Service kind         : Complete Main
  • Default            : No
  • Forced           : No
  • Text #1
  • ID             : 4
  • Format           : UTF-8
  • Codec ID           : S_TEXT/UTF8
  • Codec ID/Info          : UTF-8 Plain Text
  • Duration           : 1 h 36 min
  • Bit rate           : 47 b/s
  • Count of elements        : 1050
  • Stream size          : 33.3 KiB (0%)
  • Title            : English-SRT
  • Language           : English
  • Default            : Yes
  • Forced           : No
  • Text #2
  • ID             : 5
  • Format           : UTF-8
  • Codec ID           : S_TEXT/UTF8
  • Codec ID/Info          : UTF-8 Plain Text
  • Duration           : 1 h 37 min
  • Bit rate           : 57 b/s
  • Count of elements        : 1246
  • Stream size          : 40.7 KiB (0%)
  • Title            : English-SDH-SRT
  • Language           : English
  • Default            : No
  • Forced           : No
  • Text #3
  • ID             : 6
  • Format           : PGS
  • Muxing mode          : zlib
  • Codec ID           : S_HDMV/PGS
  • Codec ID/Info          : Picture based subtitle format used on BDs/HD-DVDs
  • Duration           : 1 h 41 min
  • Bit rate           : 19.3 kb/s
  • Count of elements        : 1660
  • Stream size          : 14.0 MiB (0%)
  • Title            : German-PGS
  • Language           : German
  • Default            : No
  • Forced           : No
  • Text #4
  • ID             : 7
  • Format           : PGS
  • Muxing mode          : zlib
  • Codec ID           : S_HDMV/PGS
  • Codec ID/Info          : Picture based subtitle format used on BDs/HD-DVDs
  • Duration           : 1 h 37 min
  • Bit rate           : 27.9 kb/s
  • Count of elements        : 2492
  • Stream size          : 19.4 MiB (0%)
  • Title            : English-PGS
  • Language           : English
  • Default            : No
  • Forced           : No
  • Text #5
  • ID             : 8
  • Format           : PGS
  • Muxing mode          : zlib
  • Codec ID           : S_HDMV/PGS
  • Codec ID/Info          : Picture based subtitle format used on BDs/HD-DVDs
  • Duration           : 1 h 41 min
  • Bit rate           : 15.2 kb/s
  • Count of elements        : 1888
  • Stream size          : 11.1 MiB (0%)
  • Title            : French-PGS
  • Language           : French
  • Default            : No
  • Forced           : No
  • Text #6
  • ID             : 9
  • Format           : PGS
  • Muxing mode          : zlib
  • Codec ID           : S_HDMV/PGS
  • Codec ID/Info          : Picture based subtitle format used on BDs/HD-DVDs
  • Duration           : 1 h 38 min
  • Bit rate           : 27.1 kb/s
  • Count of elements        : 2184
  • Stream size          : 19.2 MiB (0%)
  • Title            : German-PGS
  • Language           : German
  • Default            : No
  • Forced           : No
  • Text #7
  • ID             : 10
  • Format           : PGS
  • Muxing mode          : zlib
  • Codec ID           : S_HDMV/PGS
  • Codec ID/Info          : Picture based subtitle format used on BDs/HD-DVDs
  • Duration           : 1 h 38 min
  • Bit rate           : 27.2 kb/s
  • Count of elements        : 2186
  • Stream size          : 19.2 MiB (0%)
  • Title            : French-PGS
  • Language           : French
  • Default            : No
  • Forced           : No
  • Text #8
  • ID             : 11
  • Format           : PGS
  • Muxing mode          : zlib
  • Codec ID           : S_HDMV/PGS
  • Codec ID/Info          : Picture based subtitle format used on BDs/HD-DVDs
  • Duration           : 1 h 36 min
  • Bit rate           : 20.6 kb/s
  • Count of elements        : 1288
  • Stream size          : 14.2 MiB (0%)
  • Title            : German-PGS
  • Language           : German
  • Default            : No
  • Forced           : No
  • Menu
  • 00:00:00.000         : en:Chapter 01
  • 00:10:27.458         : en:Chapter 02
  • 00:20:51.791         : en:Chapter 03
  • 00:31:24.750         : en:Chapter 04
  • 00:42:41.333         : en:Chapter 05
  • 00:53:13.625         : en:Chapter 06
  • 01:04:07.500         : en:Chapter 07
  • 01:14:22.666         : en:Chapter 08
  • 01:21:52.958         : en:Chapter 09
  • 01:31:32.875         : en:Chapter 10











分享到:  QQ好友和群QQ好友和群
收藏收藏
字幕下載網站---點這里進入
回復

使用道具 舉報

您需要登錄后才可以回帖 登錄 | 立即注冊

本版積分規則

QQ|Archiver|手機版|小黑屋|藍光電影網

GMT+8, 2019-11-25 04:22 , Processed in 0.049653 second(s), 20 queries .

Powered by Discuz! X3.4

© 2001-2017 Comsenz Inc.

快速回復 返回頂部 返回列表
辽宁11选5前3直