藍光電影網

 找回密碼
 立即注冊

QQ登錄

只需一步,快速開始

搜索
熱搜: 活動 交友 discuz
查看: 77|回復: 0
打印 上一主題 下一主題

[REMUX.HEVC] 國際空間街/太空街 IMAX.Space.Station.2002.DOCU.2160p.BluRay.REMUX.HEVC.DTS-X.5.1-FGT 20.56GB

[復制鏈接]

3萬

主題

3萬

帖子

4萬

積分

管理員

Rank: 9Rank: 9Rank: 9

積分
46044
跳轉到指定樓層
1#
發表于 2019-11-14 15:40:40 | 只看該作者 |只看大圖 回帖獎勵 |倒序瀏覽 |閱讀模式


譯  名 國際空間街 / 太空街
片  名 Space Station 3D
年  代 2002
產  地 加拿大 / 美國
類  別 記載片
語  言 英語
上映日期 2002-04-17
IMDb評分7.5/10 from 1457 users
IMDb鏈接http://www.imdb.com/title/tt0290296
豆瓣評分 8.3/10 from 908 users
豆瓣鏈接 https://movie.douban.com/subject/1419880/
片  長 47 分鐘
導  演 Toni Myers
編  劇 Toni Myers
主  演 Tom Cruise


標  簽 記載片 | IMAX | 美國 | 科普 | 太空 | 3D | 2002 | IMAX3D

簡  介

  《國際空間街》是由美國IMAX公司拍攝3D記載片,它再現列國宇航員在圍太空飛行的宇宙空間街上的平常生活。影片展現的完全分歧與地球上的生活狀態,令觀眾不足為奇,布滿著風趣的細節。影片由IMAX巨幅銀幕復原的影象,傳神的視覺結果可以令觀眾忘記現實,恍如也身處美好的失重天下當中。

  • Video
  • ID             : 1
  • Format           : HEVC
  • Format/Info          : High Efficiency Video Coding
  • Format profile         : Main [email protected]@High
  • HDR format           : SMPTE ST 2086, HDR10 compatible
  • Codec ID           : V_MPEGH/ISO/HEVC
  • Duration           : 47 min 15 s
  • Bit rate           : 47.4 Mb/s
  • Width            : 3 840 pixels
  • Height           : 2 160 pixels
  • Display aspect ratio       : 16:9
  • Frame rate mode        : Constant
  • Frame rate           : 23.976 (24000/1001) FPS
  • Color space          : YUV
  • Chroma subsampling       : 4:2:0 (Type 2)
  • Bit depth          : 10 bits
  • Bits/(Pixel*Frame)       : 0.239
  • Stream size          : 15.7 GiB (76%)
  • Title            : IMAX.Space.Station.2002.DOCU.2160p.BluRay.REMUX.HEVC.DTS-X.5.1-FGT
  • Writing library        : ATEME Titan File 3.9.4 (4.9.4.6)
  • Language           : English
  • Default            : No
  • Forced           : No
  • Color range          : Limited
  • Color primaries        : BT.2020
  • Transfer characteristics     : PQ
  • Matrix coefficients        : BT.2020 non-constant
  • Mastering display color primaries  : Display P3
  • Mastering display luminance    : min: 0.0050 cd/m2, max: 1000 cd/m2
  • Maximum Content Light Level    : 1000 cd/m2
  • Maximum Frame-Average Light Level  : 300 cd/m2
  • Audio #1
  • ID             : 2
  • Format           : DTS XLL
  • Format/Info          : Digital Theater Systems
  • Commercial name        : DTS-HD Master Audio
  • Codec ID           : A_DTS
  • Duration           : 47 min 10 s
  • Bit rate mode          : Variable
  • Bit rate           : 4 725 kb/s
  • Channel(s)           : 6 channels
  • Channel layout         : C L R Ls Rs LFE
  • Sampling rate          : 48.0 kHz
  • Frame rate           : 93.750 FPS (512 SPF)
  • Bit depth          : 24 bits
  • Compression mode         : Lossless
  • Stream size          : 1.56 GiB (8%)
  • Title            : IMAX.Space.Station.2002.DOCU.2160p.BluRay.REMUX.HEVC.DTS-X.5.1-FGT
  • Language           : English
  • Default            : Yes
  • Forced           : No
  • Audio #2
  • ID             : 3
  • Format           : DTS XLL
  • Format/Info          : Digital Theater Systems
  • Commercial name        : DTS-HD Master Audio
  • Codec ID           : A_DTS
  • Duration           : 47 min 10 s
  • Bit rate mode          : Variable
  • Bit rate           : 2 681 kb/s
  • Channel(s)           : 6 channels
  • Channel layout         : C L R Ls Rs LFE
  • Sampling rate          : 48.0 kHz
  • Frame rate           : 93.750 FPS (512 SPF)
  • Bit depth          : 24 bits
  • Compression mode         : Lossless
  • Stream size          : 905 MiB (4%)
  • Title            : IMAX.Space.Station.2002.DOCU.2160p.BluRay.REMUX.HEVC.DTS-X.5.1-FGT
  • Language           : French
  • Default            : No
  • Forced           : No
  • Audio #3
  • ID             : 4
  • Format           : DTS XLL
  • Format/Info          : Digital Theater Systems
  • Commercial name        : DTS-HD Master Audio
  • Codec ID           : A_DTS
  • Duration           : 47 min 10 s
  • Bit rate mode          : Variable
  • Bit rate           : 2 680 kb/s
  • Channel(s)           : 6 channels
  • Channel layout         : C L R Ls Rs LFE
  • Sampling rate          : 48.0 kHz
  • Frame rate           : 93.750 FPS (512 SPF)
  • Bit depth          : 24 bits
  • Compression mode         : Lossless
  • Stream size          : 904 MiB (4%)
  • Title            : IMAX.Space.Station.2002.DOCU.2160p.BluRay.REMUX.HEVC.DTS-X.5.1-FGT
  • Language           : Spanish
  • Default            : No
  • Forced           : No
  • Audio #4
  • ID             : 5
  • Format           : DTS XLL
  • Format/Info          : Digital Theater Systems
  • Commercial name        : DTS-HD Master Audio
  • Codec ID           : A_DTS
  • Duration           : 47 min 10 s
  • Bit rate mode          : Variable
  • Bit rate           : 2 692 kb/s
  • Channel(s)           : 6 channels
  • Channel layout         : C L R Ls Rs LFE
  • Sampling rate          : 48.0 kHz
  • Frame rate           : 93.750 FPS (512 SPF)
  • Bit depth          : 24 bits
  • Compression mode         : Lossless
  • Stream size          : 908 MiB (4%)
  • Title            : IMAX.Space.Station.2002.DOCU.2160p.BluRay.REMUX.HEVC.DTS-X.5.1-FGT
  • Language           : German
  • Default            : No
  • Forced           : No
  • Audio #5
  • ID             : 6
  • Format           : DTS XLL
  • Format/Info          : Digital Theater Systems
  • Commercial name        : DTS-HD Master Audio
  • Codec ID           : A_DTS
  • Duration           : 47 min 10 s
  • Bit rate mode          : Variable
  • Bit rate           : 1 993 kb/s
  • Channel(s)           : 2 channels
  • Channel layout         : L R
  • Sampling rate          : 48.0 kHz
  • Frame rate           : 93.750 FPS (512 SPF)
  • Bit depth          : 24 bits
  • Compression mode         : Lossless
  • Stream size          : 673 MiB (3%)
  • Title            : IMAX.Space.Station.2002.DOCU.2160p.BluRay.REMUX.HEVC.DTS-X.5.1-FGT
  • Language           : English
  • Default            : No
  • Forced           : No
  • Text #1
  • ID             : 7
  • Format           : UTF-8
  • Codec ID           : S_TEXT/UTF8
  • Codec ID/Info          : UTF-8 Plain Text
  • Duration           : 43 min 26 s
  • Bit rate           : 80 b/s
  • Count of elements        : 713
  • Stream size          : 25.7 KiB (0%)
  • Title            : English-SRT
  • Language           : English
  • Default            : Yes
  • Forced           : No
  • Text #2
  • ID             : 8
  • Format           : PGS
  • Muxing mode          : zlib
  • Codec ID           : S_HDMV/PGS
  • Codec ID/Info          : Picture based subtitle format used on BDs/HD-DVDs
  • Duration           : 45 min 24 s
  • Bit rate           : 64.2 kb/s
  • Count of elements        : 1546
  • Stream size          : 20.9 MiB (0%)
  • Title            : English-PGS
  • Language           : English
  • Default            : No
  • Forced           : No
  • Text #3
  • ID             : 9
  • Format           : PGS
  • Muxing mode          : zlib
  • Codec ID           : S_HDMV/PGS
  • Codec ID/Info          : Picture based subtitle format used on BDs/HD-DVDs
  • Duration           : 43 min 26 s
  • Bit rate           : 67.7 kb/s
  • Count of elements        : 1466
  • Stream size          : 21.0 MiB (0%)
  • Title            : French-PGS
  • Language           : French
  • Default            : No
  • Forced           : No
  • Text #4
  • ID             : 10
  • Format           : PGS
  • Muxing mode          : zlib
  • Codec ID           : S_HDMV/PGS
  • Codec ID/Info          : Picture based subtitle format used on BDs/HD-DVDs
  • Duration           : 43 min 26 s
  • Bit rate           : 69.2 kb/s
  • Count of elements        : 1548
  • Stream size          : 21.5 MiB (0%)
  • Title            : Spanish-PGS
  • Language           : Spanish
  • Default            : No
  • Forced           : No
  • Text #5
  • ID             : 11
  • Format           : PGS
  • Muxing mode          : zlib
  • Codec ID           : S_HDMV/PGS
  • Codec ID/Info          : Picture based subtitle format used on BDs/HD-DVDs
  • Duration           : 44 min 58 s
  • Bit rate           : 69.9 kb/s
  • Count of elements        : 1530
  • Stream size          : 22.5 MiB (0%)
  • Title            : German-PGS
  • Language           : German
  • Default            : No
  • Forced           : No
  • Menu
  • 00:00:00.000         : en:Chapter 01
  • 00:06:34.644         : en:Chapter 02
  • 00:14:41.005         : en:Chapter 03
  • 00:23:25.862         : en:Chapter 04
  • 00:29:30.268         : en:Chapter 05
  • 00:45:22.052         : en:Chapter 06
  • 00:47:11.036         : en:Chapter 07













分享到:  QQ好友和群QQ好友和群
收藏收藏
字幕下載網站---點這里進入
回復

使用道具 舉報

您需要登錄后才可以回帖 登錄 | 立即注冊

本版積分規則

QQ|Archiver|手機版|小黑屋|藍光電影網

GMT+8, 2019-11-25 04:15 , Processed in 0.051752 second(s), 20 queries .

Powered by Discuz! X3.4

© 2001-2017 Comsenz Inc.

快速回復 返回頂部 返回列表
辽宁11选5前3直