藍光電影網

 找回密碼
 立即注冊

QQ登錄

只需一步,快速開始

搜索
熱搜: 活動 交友 discuz
查看: 609|回復: 1
打印 上一主題 下一主題

[喜劇片] 人生遙控器/命運好好玩/命運自選臺 Click.2006.1080p.BluRay.x264.DTS-FGT 12.1GB

[復制鏈接]

3萬

主題

3萬

帖子

3萬

積分

管理員

Rank: 9Rank: 9Rank: 9

積分
38768
跳轉到指定樓層
1#
發表于 2019-7-2 15:11:04 | 只看該作者 |只看大圖 回帖獎勵 |倒序瀏覽 |閱讀模式

◎譯  名 人生遙控器/命運好好玩(臺)/命運自選臺/奇異遙控器
◎片  名 Click
◎年  代 2006
◎國  家 美國
◎類  別 劇情/笑劇/家庭/奇異
◎語  言 英語
◎上映日期 2006-06-23(美國)
◎IMDb評分6.4/10 from 222,750 users
◎IMDb鏈接http://www.imdb.com/title/tt0389860/
◎豆瓣評分 7.6/10 from 78,213 users
◎豆瓣鏈接 http://movie.douban.com/subject/1474185/
◎片  長 107 分鐘
◎導  演 弗蘭克·克拉斯 Frank Coraci
◎主  演 亞當·桑德勒 Adam Sandler
      凱特·貝金賽爾 Kate Beckinsale
      克里斯托弗·沃肯 Christopher Walken
      西恩·奧斯汀 Sean Astin
      喬納·希爾 Jonah Hill
◎簡  介
  修建師邁可·紐曼(亞當·桑德勒 飾)天天都過著忙碌的生活。奇跡有成的他縱使有個完竣的家庭,美麗賢慧的妻子唐娜(凱特·貝金賽爾 飾),心愛的一對后代,他總是沒時候好好享用嫡親之樂,為了提升而回避甚至忘記了與家人們的約定。
  邁可正尋覓一個萬能遙控器,一個奧秘身份的老板莫蒂( 克里斯托弗·沃肯 飾)給了他一個。當邁可回抵家嘗試利用后才發覺了這個遙控的奇異功用:他可以操縱這個遙控器控制自己的生活時候,這對他來說是件極為興奮的工作,他可以逃過那些煩瑣的事,為所欲為到達自己想要的時段。
  直到有一天,這個遙控器不再受他的控制了,他的生活變得整齊不齊,時候敏捷向前走,而他也錯過了很多重要的工作:他敏捷的成為公司的高層、他的妻子分開了他與他人成婚、父親去世、兒子成婚等等,他才后悔自己故意錯過的工具,而他也來到了彌留之際,他盡力要警告兒子不要重蹈覆轍,多把時候留給家人……
◎獲獎情況
  第79屆奧斯卡金像獎 (2007)
  最好化裝(提名) Kazuhiro Tsuji / Bill Corso
  第16屆MTV電影獎 (2007)
  MTV電影獎 最好笑劇表演(提名) 亞當·桑德勒
Video
ID             : 1
Format           : AVC
Format/Info          : Advanced Video Codec
Format profile         : [email protected]
Format settings, CABAC       : Yes
Format settings, ReFrames      : 4 frames
Codec ID           : V_MPEG4/ISO/AVC
Duration           : 1h 47mn
Bit rate           : 14.5 Mbps
Width            : 1 920 pixels
Height           : 1 040 pixels
Display aspect ratio       : 1.85:1
Frame rate mode        : Constant
Frame rate           : 23.976 fps
Color space          : YUV
Chroma subsampling       : 4:2:0
Bit depth          : 8 bits
Scan type          : Progressive
Bits/(Pixel*Frame)       : 0.303
Stream size          : 10.7 GiB (88%)
Writing library        : x264 core 130 r2273 b3065e6
Encoding settings        : cabac=1 / ref=4 / deblock=1:-2:-2 / analyse=0x3:0x113 / me=umh / subme=8 / psy=1 / psy_rd=1.00:0.15 / mixed_ref=1 / me_range=32 / chroma_me=1 / trellis=1 / 8x8dct=1 / cqm=0 / deadzone=21,11 / fast_pskip=0 / chroma_qp_offset=-3 / threads=6 / lookahead_threads=2 / sliced_threads=0 / nr=0 / decimate=1 / interlaced=0 / bluray_compat=0 / constrained_intra=0 / bframes=8 / b_pyramid=2 / b_adapt=2 / b_bias=0 / direct=3 / weightb=1 / open_gop=0 / weightp=2 / keyint=240 / keyint_min=23 / scenecut=40 / intra_refresh=0 / rc_lookahead=90 / rc=2pass / mbtree=1 / bitrate=14500 / ratetol=1.0 / qcomp=0.60 / qpmin=0 / qpmax=69 / qpstep=4 / cplxblur=20.0 / qblur=0.5 / vbv_maxrate=50000 / vbv_bufsize=50000 / nal_hrd=none / ip_ratio=1.40 / aq=1:1.00
Language           : English
Default            : Yes
Forced           : No
Audio
ID             : 2
Format           : DTS
Format/Info          : Digital Theater Systems
Mode             : 16
Format settings, Endianness    : Big
Codec ID           : A_DTS
Duration           : 1h 47mn
Bit rate mode          : Constant
Bit rate           : 1 536 Kbps
Channel(s)           : 6 channels
Channel positions        : Front: L C R, Side: L R, LFE
Sampling rate          : 48.0 KHz
Bit depth          : 16 bits
Compression mode         : Lossy
Stream size          : 1.15 GiB (10%)
Language           : English
Default            : Yes
Forced           : No
Text #1
ID             : 3
Format           : PGS
Muxing mode          : zlib
Codec ID           : S_HDMV/PGS
Codec ID/Info          : Picture based subtitle format used on BDs/HD-DVDs
Language           : English
Default            : Yes
Forced           : No
Text #2
ID             : 4
Format           : PGS
Muxing mode          : zlib
Codec ID           : S_HDMV/PGS
Codec ID/Info          : Picture based subtitle format used on BDs/HD-DVDs
Language           : Spanish
Default            : No
Forced           : No
Text #3
ID             : 5
Format           : PGS
Muxing mode          : zlib
Codec ID           : S_HDMV/PGS
Codec ID/Info          : Picture based subtitle format used on BDs/HD-DVDs
Language           : Portuguese
Default            : No
Forced           : No
Text #4
ID             : 6
Format           : PGS
Muxing mode          : zlib
Codec ID           : S_HDMV/PGS
Codec ID/Info          : Picture based subtitle format used on BDs/HD-DVDs
Language           : Slovenian
Default            : No
Forced           : No


                          








分享到:  QQ好友和群QQ好友和群
收藏收藏
字幕下載網站---點這里進入
回復

使用道具 舉報

您需要登錄后才可以回帖 登錄 | 立即注冊

本版積分規則

QQ|Archiver|手機版|小黑屋|藍光電影網

GMT+8, 2019-9-22 10:05 , Processed in 0.058625 second(s), 20 queries .

Powered by Discuz! X3.4

© 2001-2017 Comsenz Inc.

快速回復 返回頂部 返回列表
辽宁11选5前3直