藍光電影網

 找回密碼
 立即注冊

QQ登錄

只需一步,快速開始

搜索
熱搜: 活動 交友 discuz
查看: 316|回復: 0
打印 上一主題 下一主題

[REMUX.HEVC] 永遠的蝙蝠俠/新蝙蝠俠之不敗之謎 Batman.Forever.1995.2160p.BluRay.REMUX.HEVC.DTS-HD.MA.TrueHD.7.1.Atmos-FGT 78.47GB

[復制鏈接]

2萬

主題

2萬

帖子

3萬

積分

管理員

Rank: 9Rank: 9Rank: 9

積分
31873
跳轉到指定樓層
1#
發表于 2019-6-5 16:08:00 | 只看該作者 |只看大圖 回帖獎勵 |倒序瀏覽 |閱讀模式


譯  名 永久的蝙蝠俠 / 新蝙蝠俠之不敗之謎 / 蝙蝠俠3 / 蝙蝠俠3:永久的蝙蝠俠
片  名 Batman Forever
年  代 1995
產  地 美國 / 英國
類  別 行動 / 科幻
語  言 英語
上映日期 1995-06-16
IMDb評分5.4/10 from 220056 users
IMDb鏈接http://www.imdb.com/title/tt0112462
豆瓣評分 6.6/10 from 18720 users
豆瓣鏈接 https://movie.douban.com/subject/1295638/
片  長 121 分鐘
導  演 Joel Schumacher
編  劇 Lee Batchler / Janet Scott Batchler / Akiva Goldsman
主  演 Val Kilmer
      Tommy Lee Jones
      Jim Carrey
      Nicole Kidman
      Chris O'Donnell
      Drew Barrymore


標  簽 科幻 | 美國 | 蝙蝠俠 | 行動 | 漫畫改編 | 1995 | 美國電影 | JimCarrey

簡  介

  高譚市的黑暗勢力又起頭捋臂張拳了,此次是毀了半邊臉的“雙面人”(湯米?李?瓊斯 Tommy Lee Jones 飾)。一次,“雙面人”攻擊了馬戲團,演員迪克(克里斯?奧唐納 Chris O'Donnell 飾)阻止了“雙面人”的詭計,家人卻是以慘遭殺戮。
布魯斯(瓦爾?基爾默 Val Kilmer 飾)收留了迪克,并壓服了滿腔冤仇的迪克留了下來。因研討計劃被拒絕而敵視韋布斯的公司職員愛德華(金?凱瑞 Jim Carrey 飾)成功研討出腦波吸收裝配,化身成為“謎語俠”。
“雙面人”和“謎語俠”聯手破壞高譚市,并經過腦電波吸收裝配大量吸收市民的腦電波。蝙蝠俠此次的對手強大得可怕,蝙蝠俠終極能否克服罪行?

獲獎情況

  第68屆奧斯卡金像獎(1996)
  最好攝影(提名) 斯蒂芬·戈德布拉特
  最好音效剪輯(提名) John Leveque / Bruce Stambler
  最好聲響(提名) Petur Hliddal / 弗蘭克·A·蒙塔諾 / Michael Herbick / Donald O. Mitchell



  • Video
  • ID             : 1
  • Format           : HEVC
  • Format/Info          : High Efficiency Video Coding
  • Commercial name        : HDR10
  • Format profile         : Main <a href="/cdn-cgi/l/email-protection" class="__cf_email__" data-cfemail="2f1e1f6f631a011e">[email protected]</a>@High
  • Codec ID           : V_MPEGH/ISO/HEVC
  • Duration           : 2 h 1 min
  • Bit rate           : 78.4 Mb/s
  • Width            : 3 840 pixels
  • Height           : 2 160 pixels
  • Display aspect ratio       : 16:9
  • Frame rate mode        : Constant
  • Frame rate           : 23.976 (24000/1001) FPS
  • Color space          : YUV
  • Chroma subsampling       : 4:2:0 (Type 2)
  • Bit depth          : 10 bits
  • Bits/(Pixel*Frame)       : 0.394
  • Stream size          : 66.6 GiB (85%)
  • Title            : Batman.Forever.1995.2160p.BluRay.REMUX.HEVC.DTS-HD.MA.TrueHD.7.1.Atmos-FGT
  • Writing library        : ATEME Titan File 3.9.0 (4.9.0.0)
  • Language           : English
  • Default            : No
  • Forced           : No
  • Color range          : Limited
  • Color primaries        : BT.2020
  • Transfer characteristics     : PQ
  • Matrix coefficients        : BT.2020 non-constant
  • Mastering display color primaries  : Display P3
  • Mastering display luminance    : min: 0.0050 cd/m2, max: 4000 cd/m2
  • Maximum Content Light Level    : 1353 cd/m2
  • Maximum Frame-Average Light Level  : 135 cd/m2
  • Audio #1
  • ID             : 2
  • Format           : MLP FBA 16-ch
  • Format/Info          : Meridian Lossless Packing FBA with 16-channel presentation
  • Commercial name        : Dolby TrueHD with Dolby Atmos
  • Codec ID           : A_TRUEHD
  • Duration           : 2 h 1 min
  • Bit rate mode          : Variable
  • Bit rate           : 4 134 kb/s
  • Maximum bit rate         : 7 242 kb/s
  • Channel(s)           : 8 channels
  • Channel layout         : L R C LFE Ls Rs Lb Rb
  • Sampling rate          : 48.0 kHz
  • Frame rate           : 1 200.000 FPS (40 SPF)
  • Compression mode         : Lossless
  • Stream size          : 3.51 GiB (4%)
  • Title            : Batman.Forever.1995.2160p.BluRay.REMUX.HEVC.DTS-HD.MA.TrueHD.7.1.Atmos-FGT
  • Language           : English
  • Default            : Yes
  • Forced           : No
  • Number of dynamic objects      : 15
  • Bed channel count        : 1 channel
  • Bed channel configuration      : LFE
  • Audio #2
  • ID             : 3
  • Format           : DTS XLL
  • Format/Info          : Digital Theater Systems
  • Commercial name        : DTS-HD Master Audio
  • Codec ID           : A_DTS
  • Duration           : 2 h 1 min
  • Bit rate mode          : Variable
  • Bit rate           : 3 860 kb/s
  • Channel(s)           : 8 channels
  • Channel layout         : C L R LFE Lb Rb Lss Rss
  • Sampling rate          : 48.0 kHz
  • Frame rate           : 93.750 FPS (512 SPF)
  • Bit depth          : 24 bits
  • Compression mode         : Lossless
  • Stream size          : 3.28 GiB (4%)
  • Title            : Batman.Forever.1995.2160p.BluRay.REMUX.HEVC.DTS-HD.MA.TrueHD.7.1.Atmos-FGT
  • Language           : English
  • Default            : No
  • Forced           : No
  • Audio #3
  • ID             : 4
  • Format           : AC-3
  • Format/Info          : Audio Coding 3
  • Commercial name        : Dolby Digital
  • Codec ID           : A_AC3
  • Duration           : 2 h 1 min
  • Bit rate mode          : Constant
  • Bit rate           : 448 kb/s
  • Channel(s)           : 6 channels
  • Channel layout         : L R C LFE Ls Rs
  • Sampling rate          : 48.0 kHz
  • Frame rate           : 31.250 FPS (1536 SPF)
  • Bit depth          : 16 bits
  • Compression mode         : Lossy
  • Stream size          : 390 MiB (0%)
  • Title            : Batman.Forever.1995.2160p.BluRay.REMUX.HEVC.DTS-HD.MA.TrueHD.7.1.Atmos-FGT
  • Language           : English
  • Service kind         : Complete Main
  • Default            : No
  • Forced           : No
  • Audio #4
  • ID             : 5
  • Format           : AC-3
  • Format/Info          : Audio Coding 3
  • Commercial name        : Dolby Digital
  • Codec ID           : A_AC3
  • Duration           : 2 h 1 min
  • Bit rate mode          : Constant
  • Bit rate           : 448 kb/s
  • Channel(s)           : 6 channels
  • Channel layout         : L R C LFE Ls Rs
  • Sampling rate          : 48.0 kHz
  • Frame rate           : 31.250 FPS (1536 SPF)
  • Bit depth          : 16 bits
  • Compression mode         : Lossy
  • Stream size          : 390 MiB (0%)
  • Title            : Batman.Forever.1995.2160p.BluRay.REMUX.HEVC.DTS-HD.MA.TrueHD.7.1.Atmos-FGT
  • Language           : English
  • Service kind         : Complete Main
  • Default            : No
  • Forced           : No
  • Audio #5
  • ID             : 6
  • Format           : AC-3
  • Format/Info          : Audio Coding 3
  • Commercial name        : Dolby Digital
  • Codec ID           : A_AC3
  • Duration           : 2 h 1 min
  • Bit rate mode          : Constant
  • Bit rate           : 640 kb/s
  • Channel(s)           : 6 channels
  • Channel layout         : L R C LFE Ls Rs
  • Sampling rate          : 48.0 kHz
  • Frame rate           : 31.250 FPS (1536 SPF)
  • Bit depth          : 16 bits
  • Compression mode         : Lossy
  • Stream size          : 557 MiB (1%)
  • Title            : Batman.Forever.1995.2160p.BluRay.REMUX.HEVC.DTS-HD.MA.TrueHD.7.1.Atmos-FGT
  • Language           : French
  • Service kind         : Complete Main
  • Default            : No
  • Forced           : No
  • Audio #6
  • ID             : 7
  • Format           : AC-3
  • Format/Info          : Audio Coding 3
  • Commercial name        : Dolby Digital
  • Codec ID           : A_AC3
  • Duration           : 2 h 1 min
  • Bit rate mode          : Constant
  • Bit rate           : 640 kb/s
  • Channel(s)           : 6 channels
  • Channel layout         : L R C LFE Ls Rs
  • Sampling rate          : 48.0 kHz
  • Frame rate           : 31.250 FPS (1536 SPF)
  • Bit depth          : 16 bits
  • Compression mode         : Lossy
  • Stream size          : 557 MiB (1%)
  • Title            : Batman.Forever.1995.2160p.BluRay.REMUX.HEVC.DTS-HD.MA.TrueHD.7.1.Atmos-FGT
  • Language           : German
  • Service kind         : Complete Main
  • Default            : No
  • Forced           : No
  • Audio #7
  • ID             : 8
  • Format           : AC-3
  • Format/Info          : Audio Coding 3
  • Commercial name        : Dolby Digital
  • Codec ID           : A_AC3
  • Duration           : 2 h 1 min
  • Bit rate mode          : Constant
  • Bit rate           : 640 kb/s
  • Channel(s)           : 6 channels
  • Channel layout         : L R C LFE Ls Rs
  • Sampling rate          : 48.0 kHz
  • Frame rate           : 31.250 FPS (1536 SPF)
  • Bit depth          : 16 bits
  • Compression mode         : Lossy
  • Stream size          : 557 MiB (1%)
  • Title            : Batman.Forever.1995.2160p.BluRay.REMUX.HEVC.DTS-HD.MA.TrueHD.7.1.Atmos-FGT
  • Language           : Italian
  • Service kind         : Complete Main
  • Default            : No
  • Forced           : No
  • Audio #8
  • ID             : 9
  • Format           : AC-3
  • Format/Info          : Audio Coding 3
  • Commercial name        : Dolby Digital
  • Codec ID           : A_AC3
  • Duration           : 2 h 1 min
  • Bit rate mode          : Constant
  • Bit rate           : 640 kb/s
  • Channel(s)           : 6 channels
  • Channel layout         : L R C LFE Ls Rs
  • Sampling rate          : 48.0 kHz
  • Frame rate           : 31.250 FPS (1536 SPF)
  • Bit depth          : 16 bits
  • Compression mode         : Lossy
  • Stream size          : 557 MiB (1%)
  • Title            : Batman.Forever.1995.2160p.BluRay.REMUX.HEVC.DTS-HD.MA.TrueHD.7.1.Atmos-FGT
  • Language           : Spanish
  • Service kind         : Complete Main
  • Default            : No
  • Forced           : No
  • Audio #9
  • ID             : 10
  • Format           : AC-3
  • Format/Info          : Audio Coding 3
  • Commercial name        : Dolby Digital
  • Codec ID           : A_AC3
  • Duration           : 2 h 1 min
  • Bit rate mode          : Constant
  • Bit rate           : 192 kb/s
  • Channel(s)           : 2 channels
  • Channel layout         : L R
  • Sampling rate          : 48.0 kHz
  • Frame rate           : 31.250 FPS (1536 SPF)
  • Bit depth          : 16 bits
  • Compression mode         : Lossy
  • Stream size          : 167 MiB (0%)
  • Title            : Batman.Forever.1995.2160p.BluRay.REMUX.HEVC.DTS-HD.MA.TrueHD.7.1.Atmos-FGT
  • Language           : Chinese
  • Service kind         : Complete Main
  • Default            : No
  • Forced           : No
  • Audio #10
  • ID             : 11
  • Format           : AC-3
  • Format/Info          : Audio Coding 3
  • Commercial name        : Dolby Digital
  • Codec ID           : A_AC3
  • Duration           : 2 h 1 min
  • Bit rate mode          : Constant
  • Bit rate           : 192 kb/s
  • Channel(s)           : 2 channels
  • Channel layout         : L R
  • Sampling rate          : 48.0 kHz
  • Frame rate           : 31.250 FPS (1536 SPF)
  • Bit depth          : 16 bits
  • Compression mode         : Lossy
  • Stream size          : 167 MiB (0%)
  • Title            : Batman.Forever.1995.2160p.BluRay.REMUX.HEVC.DTS-HD.MA.TrueHD.7.1.Atmos-FGT
  • Language           : Spanish
  • Service kind         : Complete Main
  • Default            : No
  • Forced           : No
  • Audio #11
  • ID             : 12
  • Format           : AC-3
  • Format/Info          : Audio Coding 3
  • Commercial name        : Dolby Digital
  • Codec ID           : A_AC3
  • Duration           : 2 h 1 min
  • Bit rate mode          : Constant
  • Bit rate           : 192 kb/s
  • Channel(s)           : 2 channels
  • Channel layout         : L R
  • Sampling rate          : 48.0 kHz
  • Frame rate           : 31.250 FPS (1536 SPF)
  • Bit depth          : 16 bits
  • Compression mode         : Lossy
  • Stream size          : 167 MiB (0%)
  • Title            : Batman.Forever.1995.2160p.BluRay.REMUX.HEVC.DTS-HD.MA.TrueHD.7.1.Atmos-FGT
  • Language           : Czech
  • Service kind         : Complete Main
  • Default            : No
  • Forced           : No
  • Audio #12
  • ID             : 13
  • Format           : AC-3
  • Format/Info          : Audio Coding 3
  • Commercial name        : Dolby Digital
  • Codec ID           : A_AC3
  • Duration           : 2 h 1 min
  • Bit rate mode          : Constant
  • Bit rate           : 448 kb/s
  • Channel(s)           : 6 channels
  • Channel layout         : L R C LFE Ls Rs
  • Sampling rate          : 48.0 kHz
  • Frame rate           : 31.250 FPS (1536 SPF)
  • Bit depth          : 16 bits
  • Compression mode         : Lossy
  • Stream size          : 390 MiB (0%)
  • Title            : Batman.Forever.1995.2160p.BluRay.REMUX.HEVC.DTS-HD.MA.TrueHD.7.1.Atmos-FGT
  • Language           : Hungarian
  • Service kind         : Complete Main
  • Default            : No
  • Forced           : No
  • Audio #13
  • ID             : 14
  • Format           : AC-3
  • Format/Info          : Audio Coding 3
  • Commercial name        : Dolby Digital
  • Codec ID           : A_AC3
  • Duration           : 2 h 1 min
  • Bit rate mode          : Constant
  • Bit rate           : 448 kb/s
  • Channel(s)           : 6 channels
  • Channel layout         : L R C LFE Ls Rs
  • Sampling rate          : 48.0 kHz
  • Frame rate           : 31.250 FPS (1536 SPF)
  • Bit depth          : 16 bits
  • Compression mode         : Lossy
  • Stream size          : 390 MiB (0%)
  • Title            : Batman.Forever.1995.2160p.BluRay.REMUX.HEVC.DTS-HD.MA.TrueHD.7.1.Atmos-FGT
  • Language           : Polish
  • Service kind         : Complete Main
  • Default            : No
  • Forced           : No
  • Audio #14
  • ID             : 15
  • Format           : AC-3
  • Format/Info          : Audio Coding 3
  • Commercial name        : Dolby Digital
  • Codec ID           : A_AC3
  • Duration           : 2 h 1 min
  • Bit rate mode          : Constant
  • Bit rate           : 448 kb/s
  • Channel(s)           : 6 channels
  • Channel layout         : L R C LFE Ls Rs
  • Sampling rate          : 48.0 kHz
  • Frame rate           : 31.250 FPS (1536 SPF)
  • Bit depth          : 16 bits
  • Compression mode         : Lossy
  • Stream size          : 390 MiB (0%)
  • Title            : Batman.Forever.1995.2160p.BluRay.REMUX.HEVC.DTS-HD.MA.TrueHD.7.1.Atmos-FGT
  • Language           : Russian
  • Service kind         : Complete Main
  • Default            : No
  • Forced           : No
  • Audio #15
  • ID             : 16
  • Format           : AC-3
  • Format/Info          : Audio Coding 3
  • Commercial name        : Dolby Digital
  • Codec ID           : A_AC3
  • Duration           : 2 h 1 min
  • Bit rate mode          : Constant
  • Bit rate           : 192 kb/s
  • Channel(s)           : 2 channels
  • Channel layout         : L R
  • Sampling rate          : 48.0 kHz
  • Frame rate           : 31.250 FPS (1536 SPF)
  • Bit depth          : 16 bits
  • Compression mode         : Lossy
  • Stream size          : 167 MiB (0%)
  • Title            : Batman.Forever.1995.2160p.BluRay.REMUX.HEVC.DTS-HD.MA.TrueHD.7.1.Atmos-FGT
  • Language           : Thai
  • Service kind         : Complete Main
  • Default            : No
  • Forced           : No
  • Audio #16
  • ID             : 17
  • Format           : AC-3
  • Format/Info          : Audio Coding 3
  • Commercial name        : Dolby Digital
  • Codec ID           : A_AC3
  • Duration           : 2 h 1 min
  • Bit rate mode          : Constant
  • Bit rate           : 192 kb/s
  • Channel(s)           : 2 channels
  • Channel layout         : L R
  • Sampling rate          : 48.0 kHz
  • Frame rate           : 31.250 FPS (1536 SPF)
  • Bit depth          : 16 bits
  • Compression mode         : Lossy
  • Stream size          : 167 MiB (0%)
  • Title            : Batman.Forever.1995.2160p.BluRay.REMUX.HEVC.DTS-HD.MA.TrueHD.7.1.Atmos-FGT
  • Language           : English
  • Service kind         : Complete Main
  • Default            : No
  • Forced           : No
  • Text #1
  • ID             : 18
  • Format           : UTF-8
  • Codec ID           : S_TEXT/UTF8
  • Codec ID/Info          : UTF-8 Plain Text
  • Duration           : 1 h 55 min
  • Bit rate           : 43 b/s
  • Count of elements        : 1162
  • Stream size          : 37.0 KiB (0%)
  • Title            : English-SRT
  • Language           : English
  • Default            : Yes
  • Forced           : No
  • Text #2
  • ID             : 19
  • Format           : PGS
  • Muxing mode          : zlib
  • Codec ID           : S_HDMV/PGS
  • Codec ID/Info          : Picture based subtitle format used on BDs/HD-DVDs
  • Duration           : 1 h 55 min
  • Bit rate           : 27.9 kb/s
  • Count of elements        : 2946
  • Stream size          : 23.0 MiB (0%)
  • Title            : English-PGS
  • Language           : English
  • Default            : No
  • Forced           : No
  • Text #3
  • ID             : 20
  • Format           : PGS
  • Muxing mode          : zlib
  • Codec ID           : S_HDMV/PGS
  • Codec ID/Info          : Picture based subtitle format used on BDs/HD-DVDs
  • Duration           : 1 h 55 min
  • Bit rate           : 20.7 kb/s
  • Count of elements        : 2370
  • Stream size          : 17.0 MiB (0%)
  • Title            : French-PGS
  • Language           : French
  • Default            : No
  • Forced           : No
  • Text #4
  • ID             : 21
  • Format           : PGS
  • Muxing mode          : zlib
  • Codec ID           : S_HDMV/PGS
  • Codec ID/Info          : Picture based subtitle format used on BDs/HD-DVDs
  • Duration           : 1 h 55 min
  • Bit rate           : 24.4 kb/s
  • Count of elements        : 2488
  • Stream size          : 20.1 MiB (0%)
  • Title            : German-PGS
  • Language           : German
  • Default            : No
  • Forced           : No
  • Text #5
  • ID             : 22
  • Format           : PGS
  • Muxing mode          : zlib
  • Codec ID           : S_HDMV/PGS
  • Codec ID/Info          : Picture based subtitle format used on BDs/HD-DVDs
  • Duration           : 1 h 55 min
  • Bit rate           : 23.1 kb/s
  • Count of elements        : 2492
  • Stream size          : 19.0 MiB (0%)
  • Title            : Italian-PGS
  • Language           : Italian
  • Default            : No
  • Forced           : No
  • Text #6
  • ID             : 23
  • Format           : PGS
  • Muxing mode          : zlib
  • Codec ID           : S_HDMV/PGS
  • Codec ID/Info          : Picture based subtitle format used on BDs/HD-DVDs
  • Duration           : 1 h 55 min
  • Bit rate           : 23.3 kb/s
  • Count of elements        : 2398
  • Stream size          : 19.2 MiB (0%)
  • Title            : Spanish-PGS
  • Language           : Spanish
  • Default            : No
  • Forced           : No
  • Text #7
  • ID             : 24
  • Format           : PGS
  • Muxing mode          : zlib
  • Codec ID           : S_HDMV/PGS
  • Codec ID/Info          : Picture based subtitle format used on BDs/HD-DVDs
  • Duration           : 1 h 55 min
  • Bit rate           : 21.8 kb/s
  • Count of elements        : 2400
  • Stream size          : 18.0 MiB (0%)
  • Title            : Dutch-PGS
  • Language           : Dutch
  • Default            : No
  • Forced           : No
  • Text #8
  • ID             : 25
  • Format           : PGS
  • Muxing mode          : zlib
  • Codec ID           : S_HDMV/PGS
  • Codec ID/Info          : Picture based subtitle format used on BDs/HD-DVDs
  • Duration           : 1 h 56 min
  • Bit rate           : 19.4 kb/s
  • Count of elements        : 2440
  • Stream size          : 16.2 MiB (0%)
  • Title            : Chinese-PGS
  • Language           : Chinese
  • Default            : No
  • Forced           : No
  • Text #9
  • ID             : 26
  • Format           : PGS
  • Muxing mode          : zlib
  • Codec ID           : S_HDMV/PGS
  • Codec ID/Info          : Picture based subtitle format used on BDs/HD-DVDs
  • Duration           : 1 h 55 min
  • Bit rate           : 21.0 kb/s
  • Count of elements        : 2450
  • Stream size          : 17.3 MiB (0%)
  • Title            : Chinese-PGS
  • Language           : Chinese
  • Default            : No
  • Forced           : No
  • Text #10
  • ID             : 27
  • Format           : PGS
  • Muxing mode          : zlib
  • Codec ID           : S_HDMV/PGS
  • Codec ID/Info          : Picture based subtitle format used on BDs/HD-DVDs
  • Duration           : 1 h 56 min
  • Bit rate           : 17.9 kb/s
  • Count of elements        : 2434
  • Stream size          : 14.9 MiB (0%)
  • Title            : Korean-PGS
  • Language           : Korean
  • Default            : No
  • Forced           : No
  • Text #11
  • ID             : 28
  • Format           : PGS
  • Muxing mode          : zlib
  • Codec ID           : S_HDMV/PGS
  • Codec ID/Info          : Picture based subtitle format used on BDs/HD-DVDs
  • Duration           : 1 h 55 min
  • Bit rate           : 23.3 kb/s
  • Count of elements        : 2406
  • Stream size          : 19.2 MiB (0%)
  • Title            : Spanish-PGS
  • Language           : Spanish
  • Default            : No
  • Forced           : No
  • Text #12
  • ID             : 29
  • Format           : PGS
  • Muxing mode          : zlib
  • Codec ID           : S_HDMV/PGS
  • Codec ID/Info          : Picture based subtitle format used on BDs/HD-DVDs
  • Duration           : 1 h 55 min
  • Bit rate           : 14.3 kb/s
  • Count of elements        : 2412
  • Stream size          : 11.9 MiB (0%)
  • Title            : Arabic-PGS
  • Language           : Arabic
  • Default            : No
  • Forced           : No
  • Text #13
  • ID             : 30
  • Format           : PGS
  • Muxing mode          : zlib
  • Codec ID           : S_HDMV/PGS
  • Codec ID/Info          : Picture based subtitle format used on BDs/HD-DVDs
  • Duration           : 1 h 55 min
  • Bit rate           : 21.1 kb/s
  • Count of elements        : 2402
  • Stream size          : 17.3 MiB (0%)
  • Title            : Czech-PGS
  • Language           : Czech
  • Default            : No
  • Forced           : No
  • Text #14
  • ID             : 31
  • Format           : PGS
  • Muxing mode          : zlib
  • Codec ID           : S_HDMV/PGS
  • Codec ID/Info          : Picture based subtitle format used on BDs/HD-DVDs
  • Duration           : 1 h 55 min
  • Bit rate           : 20.8 kb/s
  • Count of elements        : 2398
  • Stream size          : 17.2 MiB (0%)
  • Title            : Danish-PGS
  • Language           : Danish
  • Default            : No
  • Forced           : No
  • Text #15
  • ID             : 32
  • Format           : PGS
  • Muxing mode          : zlib
  • Codec ID           : S_HDMV/PGS
  • Codec ID/Info          : Picture based subtitle format used on BDs/HD-DVDs
  • Duration           : 1 h 55 min
  • Bit rate           : 20.2 kb/s
  • Count of elements        : 2400
  • Stream size          : 16.7 MiB (0%)
  • Title            : Finnish-PGS
  • Language           : Finnish
  • Default            : No
  • Forced           : No
  • Text #16
  • ID             : 33
  • Format           : PGS
  • Muxing mode          : zlib
  • Codec ID           : S_HDMV/PGS
  • Codec ID/Info          : Picture based subtitle format used on BDs/HD-DVDs
  • Duration           : 1 h 55 min
  • Bit rate           : 22.3 kb/s
  • Count of elements        : 2398
  • Stream size          : 18.3 MiB (0%)
  • Title            : Hungarian-PGS
  • Language           : Hungarian
  • Default            : No
  • Forced           : No
  • Text #17
  • ID             : 34
  • Format           : PGS
  • Muxing mode          : zlib
  • Codec ID           : S_HDMV/PGS
  • Codec ID/Info          : Picture based subtitle format used on BDs/HD-DVDs
  • Duration           : 1 h 55 min
  • Bit rate           : 19.8 kb/s
  • Count of elements        : 2398
  • Stream size          : 16.3 MiB (0%)
  • Title            : Norwegian-PGS
  • Language           : Norwegian
  • Default            : No
  • Forced           : No
  • Text #18
  • ID             : 35
  • Format           : PGS
  • Muxing mode          : zlib
  • Codec ID           : S_HDMV/PGS
  • Codec ID/Info          : Picture based subtitle format used on BDs/HD-DVDs
  • Duration           : 1 h 55 min
  • Bit rate           : 20.0 kb/s
  • Count of elements        : 2404
  • Stream size          : 16.5 MiB (0%)
  • Title            : Polish-PGS
  • Language           : Polish
  • Default            : No
  • Forced           : No
  • Text #19
  • ID             : 36
  • Format           : PGS
  • Muxing mode          : zlib
  • Codec ID           : S_HDMV/PGS
  • Codec ID/Info          : Picture based subtitle format used on BDs/HD-DVDs
  • Duration           : 1 h 55 min
  • Bit rate           : 20.2 kb/s
  • Count of elements        : 2412
  • Stream size          : 16.6 MiB (0%)
  • Title            : Russian-PGS
  • Language           : Russian
  • Default            : No
  • Forced           : No
  • Text #20
  • ID             : 37
  • Format           : PGS
  • Muxing mode          : zlib
  • Codec ID           : S_HDMV/PGS
  • Codec ID/Info          : Picture based subtitle format used on BDs/HD-DVDs
  • Duration           : 1 h 55 min
  • Bit rate           : 20.1 kb/s
  • Count of elements        : 2398
  • Stream size          : 16.5 MiB (0%)
  • Title            : Swedish-PGS
  • Language           : Swedish
  • Default            : No
  • Forced           : No
  • Text #21
  • ID             : 38
  • Format           : PGS
  • Muxing mode          : zlib
  • Codec ID           : S_HDMV/PGS
  • Codec ID/Info          : Picture based subtitle format used on BDs/HD-DVDs
  • Duration           : 1 h 59 min
  • Bit rate           : 20.9 kb/s
  • Count of elements        : 2272
  • Stream size          : 17.9 MiB (0%)
  • Title            : Thai-PGS
  • Language           : Thai
  • Default            : No
  • Forced           : No
  • Text #22
  • ID             : 39
  • Format           : PGS
  • Muxing mode          : zlib
  • Codec ID           : S_HDMV/PGS
  • Codec ID/Info          : Picture based subtitle format used on BDs/HD-DVDs
  • Duration           : 1 h 44 min
  • Bit rate           : 192 b/s
  • Count of elements        : 20
  • Stream size          : 147 KiB (0%)
  • Title            : French-FORCED-PGS
  • Language           : French
  • Default            : No
  • Forced           : No
  • Text #23
  • ID             : 40
  • Format           : PGS
  • Muxing mode          : zlib
  • Codec ID           : S_HDMV/PGS
  • Codec ID/Info          : Picture based subtitle format used on BDs/HD-DVDs
  • Duration           : 1 h 44 min
  • Bit rate           : 351 b/s
  • Count of elements        : 34
  • Stream size          : 268 KiB (0%)
  • Title            : German-FORCED-PGS
  • Language           : German
  • Default            : No
  • Forced           : No
  • Text #24
  • ID             : 41
  • Format           : PGS
  • Muxing mode          : zlib
  • Codec ID           : S_HDMV/PGS
  • Codec ID/Info          : Picture based subtitle format used on BDs/HD-DVDs
  • Duration           : 1 h 44 min
  • Bit rate           : 343 b/s
  • Count of elements        : 32
  • Stream size          : 262 KiB (0%)
  • Title            : Italian-FORCED-PGS
  • Language           : Italian
  • Default            : No
  • Forced           : No
  • Text #25
  • ID             : 42
  • Format           : PGS
  • Muxing mode          : zlib
  • Codec ID           : S_HDMV/PGS
  • Codec ID/Info          : Picture based subtitle format used on BDs/HD-DVDs
  • Duration           : 1 h 31 min
  • Bit rate           : 567 b/s
  • Count of elements        : 42
  • Stream size          : 380 KiB (0%)
  • Title            : Spanish-FORCED-PGS
  • Language           : Spanish
  • Default            : No
  • Forced           : No
  • Menu
  • 00:00:00.000         : en:Chapter 01
  • 00:02:17.887         : en:Chapter 02
  • 00:05:30.496         : en:Chapter 03
  • 00:10:10.610         : en:Chapter 04
  • 00:12:40.885         : en:Chapter 05
  • 00:16:36.453         : en:Chapter 06
  • 00:19:55.903         : en:Chapter 07
  • 00:24:51.948         : en:Chapter 08
  • 00:29:09.914         : en:Chapter 09
  • 00:32:56.557         : en:Chapter 10
  • 00:41:02.918         : en:Chapter 11
  • 00:44:09.438         : en:Chapter 12
  • 00:46:51.725         : en:Chapter 13
  • 00:48:09.177         : en:Chapter 14
  • 00:50:49.421         : en:Chapter 15
  • 00:56:48.488         : en:Chapter 16
  • 00:58:16.951         : en:Chapter 17
  • 01:01:51.165         : en:Chapter 18
  • 01:04:44.839         : en:Chapter 19
  • 01:08:37.947         : en:Chapter 20
  • 01:10:24.386         : en:Chapter 21
  • 01:15:13.884         : en:Chapter 22
  • 01:19:55.665         : en:Chapter 23
  • 01:21:59.748         : en:Chapter 24
  • 01:24:06.708         : en:Chapter 25
  • 01:24:58.343         : en:Chapter 26
  • 01:26:17.505         : en:Chapter 27
  • 01:31:35.740         : en:Chapter 28
  • 01:35:50.453         : en:Chapter 29
  • 01:37:25.005         : en:Chapter 30
  • 01:39:55.948         : en:Chapter 31
  • 01:41:11.190         : en:Chapter 32
  • 01:42:53.792         : en:Chapter 33
  • 01:44:58.792         : en:Chapter 34
  • 01:52:35.665         : en:Chapter 35
  • 01:53:44.943         : en:Chapter 36
  • 01:54:42.166         : en:Chapter 37
  • 01:56:03.706         : en:Chapter 38
  • 01:57:33.212         : en:Chapter 39

復制代碼










分享到:  QQ好友和群QQ好友和群
收藏收藏
字幕下載網站---點這里進入
回復

使用道具 舉報

您需要登錄后才可以回帖 登錄 | 立即注冊

本版積分規則

QQ|Archiver|手機版|小黑屋|藍光電影網

GMT+8, 2019-8-14 04:14 , Processed in 0.055588 second(s), 20 queries .

Powered by Discuz! X3.4

© 2001-2017 Comsenz Inc.

快速回復 返回頂部 返回列表
辽宁11选5前3直