藍光電影網

 找回密碼
 立即注冊

QQ登錄

只需一步,快速開始

搜索
熱搜: 活動 交友 discuz
查看: 317|回復: 1
打印 上一主題 下一主題

[REMUX.HEVC] 玩具總動員3/反斗奇兵3 Toy.Story.3.2010.US.2160p.BluRay.REMUX.HEVC.TrueHD.7.1.Atmos-FGT 38.11GB

[復制鏈接]

2萬

主題

2萬

帖子

3萬

積分

管理員

Rank: 9Rank: 9Rank: 9

積分
31873
跳轉到指定樓層
1#
發表于 2019-6-5 16:05:30 | 只看該作者 |只看大圖 回帖獎勵 |倒序瀏覽 |閱讀模式


譯  名 玩具總帶動3 / 反斗奇兵3(港) / 玩具的故事3
片  名 Toy Story 3
年  代 2010
產  地 美國
類  別 笑劇 / 動畫 / 奇異 / 冒險
語  言 英語 / 西班牙語
上映日期 2010-06-16(中國大陸) / 2010-06-18(美國)
IMDb評分8.3/10 from 679655 users
IMDb鏈接http://www.imdb.com/title/tt0435761
豆瓣評分 8.8/10 from 256164 users
豆瓣鏈接 https://movie.douban.com/subject/1858711/
片  長 103分鐘
導  演 李·昂克里奇 Lee Unkrich
編  劇 邁克爾·阿恩特 Michael Arndt / 約翰·拉塞特 John Lasseter / 安德魯·斯坦頓 Andrew Stanton / 李·昂克里奇 Lee Unkrich
主  演 湯姆·漢克斯 Tom Hanks
      蒂姆·艾倫 Tim Allen
      瓊·庫薩克 Joan Cusack
      尼德·巴蒂 Ned Beatty
      唐·里克斯 Don Rickles
      邁克爾·基頓 Michael Keaton


標  簽 動畫 | 美國 | Pixar | 迪斯尼 | 長大 | 動人 | 笑劇 | 3D

簡  介

  距上一次的冒險已經曩昔11個年頭,轉眼間安迪(約翰·莫里斯 John Morris 配音)釀成了17歲的陽光男孩。這年炎天,安迪行將起頭大門生活,他必須將自己的房間整理整潔留給妹妹。此前,伍迪(湯姆·漢克斯 Tom Hanks 配音)與巴斯光年(蒂姆·艾倫 Tim Allen 配音)等玩具一向期待安迪再和他們頑耍,可是隨著光陰的流逝,他們被蕭瑟在箱子里很久了。安迪非常顧惜這些童年的玩伴,因而預備將他們收在閣樓。誰曾想,媽媽卻把玩具們看成廢物扔到街道上。玩具們誤解了安迪,因而憤然出走,寧可被捐贈到陽光之家幼兒園。
伍迪極力勸慰大師,卻見效甚微,只得單獨黯然分開。巴斯光年他們原本以為將重新回到往昔的歡暢時光,不意卻墮入一場詭計當中……

獲獎情況

  第83屆奧斯卡金像獎(2011)
  最好影片(提名) 達拉·K·安德森
  最好改編劇本(提名) 安德魯·斯坦頓 / 邁克爾·阿恩特 / 李·昂克里奇 / 約翰·拉塞特
  最好動畫長片 李·昂克里奇
  最好音效剪輯(提名) 邁克爾·席維斯 / Tom Myers
  最好原創歌曲 蘭迪·紐曼

  第68屆金球獎(2011)
  電影類 最好動畫長片

  第34屆日本電影學院獎(2011)
  最好外語片(提名)

  第38屆動畫安妮獎(2011)
  最好動畫長片(提名)
  最好導演(提名) 李·昂克里奇
  最好編劇(提名) 邁克爾·阿恩特

  第20屆MTV電影獎(2011)
  MTV電影獎 最好反派(提名) 尼德·巴蒂

  第11屆美國電影學會獎(2010)
  年度佳片

  第9屆華盛頓影評人協會獎(2010)
  最好影片(提名)
  最好改編劇本(提名) 安德魯·斯坦頓 / 邁克爾·阿恩特 / 李·昂克里奇 / 約翰·拉塞特
  最好動畫片
  最好動畫片(提名)

  第31屆波士頓影評人協會獎(2010)
  最好影片(提名)
  最好動畫片

  第15屆圣地亞哥影評人協會獎(2010)
  最好原創劇本(提名) 邁克爾·阿恩特
  最好動畫片

  第23屆芝加哥影評人協會獎(2010)
  最好改編劇本(提名) 邁克爾·阿恩特
  最好動畫片

  第44屆堪薩斯影評人協會獎(2011)
  最好動畫片

  第10屆鳳凰城影評人協會獎(2010)
  最好原創歌曲(提名) 蘭迪·紐曼
  最好動畫片
  十佳影片

  第19屆東南影評人協會獎(2010)
  最好動畫片
  十大佳片

  第12屆美國青少年挑選獎(2010)
  最好動畫片



  • Video
  • ID             : 1
  • Format           : HEVC
  • Format/Info          : High Efficiency Video Coding
  • Commercial name        : HDR10
  • Format profile         : Main <a href="/cdn-cgi/l/email-protection" class="__cf_email__" data-cfemail="af9e9fefe39a819e">[email protected]</a>@High
  • Codec ID           : V_MPEGH/ISO/HEVC
  • Duration           : 1 h 42 min
  • Bit rate           : 40.9 Mb/s
  • Width            : 3 840 pixels
  • Height           : 2 160 pixels
  • Display aspect ratio       : 16:9
  • Frame rate mode        : Constant
  • Frame rate           : 23.976 (24000/1001) FPS
  • Color space          : YUV
  • Chroma subsampling       : 4:2:0 (Type 2)
  • Bit depth          : 10 bits
  • Bits/(Pixel*Frame)       : 0.206
  • Stream size          : 29.3 GiB (77%)
  • Title            : Toy.Story.3.2010.US.2160p.BluRay.REMUX.HEVC.TrueHD.7.1.Atmos-FGT
  • Writing library        : ATEME Titan File 3.9.0 (4.9.0.0)
  • Language           : English
  • Default            : No
  • Forced           : No
  • Color range          : Limited
  • Color primaries        : BT.2020
  • Transfer characteristics     : PQ
  • Matrix coefficients        : BT.2020 non-constant
  • Mastering display color primaries  : Display P3
  • Mastering display luminance    : min: 0.0000 cd/m2, max: 1000 cd/m2
  • Audio #1
  • ID             : 2
  • Format           : MLP FBA 16-ch
  • Format/Info          : Meridian Lossless Packing FBA with 16-channel presentation
  • Commercial name        : Dolby TrueHD with Dolby Atmos
  • Codec ID           : A_TRUEHD
  • Duration           : 1 h 42 min
  • Bit rate mode          : Variable
  • Bit rate           : 7 403 kb/s
  • Maximum bit rate         : 8 814 kb/s
  • Channel(s)           : 8 channels
  • Channel layout         : L R C LFE Ls Rs Lb Rb
  • Sampling rate          : 48.0 kHz
  • Frame rate           : 1 200.000 FPS (40 SPF)
  • Compression mode         : Lossless
  • Stream size          : 5.30 GiB (14%)
  • Title            : Toy.Story.3.2010.US.2160p.BluRay.REMUX.HEVC.TrueHD.7.1.Atmos-FGT
  • Language           : English
  • Default            : Yes
  • Forced           : No
  • Number of dynamic objects      : 13
  • Bed channel count        : 1 channel
  • Bed channel configuration      : LFE
  • Audio #2
  • ID             : 3
  • Format           : AC-3
  • Format/Info          : Audio Coding 3
  • Commercial name        : Dolby Digital
  • Codec ID           : A_AC3
  • Duration           : 1 h 42 min
  • Bit rate mode          : Constant
  • Bit rate           : 640 kb/s
  • Channel(s)           : 6 channels
  • Channel layout         : L R C LFE Ls Rs
  • Sampling rate          : 48.0 kHz
  • Frame rate           : 31.250 FPS (1536 SPF)
  • Bit depth          : 16 bits
  • Compression mode         : Lossy
  • Stream size          : 469 MiB (1%)
  • Title            : Toy.Story.3.2010.US.2160p.BluRay.REMUX.HEVC.TrueHD.7.1.Atmos-FGT
  • Language           : English
  • Service kind         : Complete Main
  • Default            : No
  • Forced           : No
  • Audio #3
  • ID             : 4
  • Format           : E-AC-3
  • Format/Info          : Enhanced AC-3
  • Commercial name        : Dolby Digital Plus
  • Format profile         : Blu-ray Disc
  • Codec ID           : A_EAC3
  • Duration           : 1 h 42 min
  • Bit rate mode          : Constant
  • Bit rate           : 1 024 kb/s
  • Channel(s)           : 8 channels
  • Channel layout         : L R C LFE Ls Rs Lb Rb
  • Sampling rate          : 48.0 kHz
  • Frame rate           : 31.250 FPS (1536 SPF)
  • Compression mode         : Lossy
  • Stream size          : 751 MiB (2%)
  • Title            : Toy.Story.3.2010.US.2160p.BluRay.REMUX.HEVC.TrueHD.7.1.Atmos-FGT
  • Language           : English
  • Service kind         : Complete Main
  • Default            : No
  • Forced           : No
  • Audio #4
  • ID             : 5
  • Format           : AC-3
  • Format/Info          : Audio Coding 3
  • Commercial name        : Dolby Digital
  • Codec ID           : A_AC3
  • Duration           : 1 h 42 min
  • Bit rate mode          : Constant
  • Bit rate           : 576 kb/s
  • Channel(s)           : 6 channels
  • Channel layout         : L R C LFE Ls Rs
  • Sampling rate          : 48.0 kHz
  • Frame rate           : 31.250 FPS (1536 SPF)
  • Bit depth          : 16 bits
  • Compression mode         : Lossy
  • Stream size          : 422 MiB (1%)
  • Title            : Toy.Story.3.2010.US.2160p.BluRay.REMUX.HEVC.TrueHD.7.1.Atmos-FGT
  • Language           : English
  • Service kind         : Complete Main
  • Default            : No
  • Forced           : No
  • Audio #5
  • ID             : 6
  • Format           : AC-3
  • Format/Info          : Audio Coding 3
  • Commercial name        : Dolby Digital
  • Codec ID           : A_AC3
  • Duration           : 1 h 42 min
  • Bit rate mode          : Constant
  • Bit rate           : 640 kb/s
  • Channel(s)           : 6 channels
  • Channel layout         : L R C LFE Ls Rs
  • Sampling rate          : 48.0 kHz
  • Frame rate           : 31.250 FPS (1536 SPF)
  • Bit depth          : 16 bits
  • Compression mode         : Lossy
  • Stream size          : 469 MiB (1%)
  • Title            : Toy.Story.3.2010.US.2160p.BluRay.REMUX.HEVC.TrueHD.7.1.Atmos-FGT
  • Language           : English
  • Service kind         : Complete Main
  • Default            : No
  • Forced           : No
  • Audio #6
  • ID             : 7
  • Format           : AC-3
  • Format/Info          : Audio Coding 3
  • Commercial name        : Dolby Digital
  • Codec ID           : A_AC3
  • Duration           : 1 h 42 min
  • Bit rate mode          : Constant
  • Bit rate           : 320 kb/s
  • Channel(s)           : 2 channels
  • Channel layout         : L R
  • Sampling rate          : 48.0 kHz
  • Frame rate           : 31.250 FPS (1536 SPF)
  • Bit depth          : 16 bits
  • Compression mode         : Lossy
  • Stream size          : 235 MiB (1%)
  • Title            : Toy.Story.3.2010.US.2160p.BluRay.REMUX.HEVC.TrueHD.7.1.Atmos-FGT
  • Language           : English
  • Service kind         : Complete Main
  • Default            : No
  • Forced           : No
  • Audio #7
  • ID             : 8
  • Format           : AC-3
  • Format/Info          : Audio Coding 3
  • Commercial name        : Dolby Digital
  • Codec ID           : A_AC3
  • Duration           : 1 h 42 min
  • Bit rate mode          : Constant
  • Bit rate           : 320 kb/s
  • Channel(s)           : 2 channels
  • Channel layout         : L R
  • Sampling rate          : 48.0 kHz
  • Frame rate           : 31.250 FPS (1536 SPF)
  • Bit depth          : 16 bits
  • Compression mode         : Lossy
  • Stream size          : 235 MiB (1%)
  • Title            : Toy.Story.3.2010.US.2160p.BluRay.REMUX.HEVC.TrueHD.7.1.Atmos-FGT
  • Language           : English
  • Service kind         : Complete Main
  • Default            : No
  • Forced           : No
  • Audio #8
  • ID             : 9
  • Format           : AC-3
  • Format/Info          : Audio Coding 3
  • Commercial name        : Dolby Digital
  • Codec ID           : A_AC3
  • Duration           : 1 h 42 min
  • Bit rate mode          : Constant
  • Bit rate           : 640 kb/s
  • Channel(s)           : 6 channels
  • Channel layout         : L R C LFE Ls Rs
  • Sampling rate          : 48.0 kHz
  • Frame rate           : 31.250 FPS (1536 SPF)
  • Bit depth          : 16 bits
  • Compression mode         : Lossy
  • Stream size          : 469 MiB (1%)
  • Title            : Toy.Story.3.2010.US.2160p.BluRay.REMUX.HEVC.TrueHD.7.1.Atmos-FGT
  • Language           : French
  • Service kind         : Complete Main
  • Default            : No
  • Forced           : No
  • Audio #9
  • ID             : 10
  • Format           : AC-3
  • Format/Info          : Audio Coding 3
  • Commercial name        : Dolby Digital
  • Codec ID           : A_AC3
  • Duration           : 1 h 42 min
  • Bit rate mode          : Constant
  • Bit rate           : 640 kb/s
  • Channel(s)           : 6 channels
  • Channel layout         : L R C LFE Ls Rs
  • Sampling rate          : 48.0 kHz
  • Frame rate           : 31.250 FPS (1536 SPF)
  • Bit depth          : 16 bits
  • Compression mode         : Lossy
  • Stream size          : 469 MiB (1%)
  • Title            : Toy.Story.3.2010.US.2160p.BluRay.REMUX.HEVC.TrueHD.7.1.Atmos-FGT
  • Language           : Spanish
  • Service kind         : Complete Main
  • Default            : No
  • Forced           : No
  • Text #1
  • ID             : 11
  • Format           : UTF-8
  • Codec ID           : S_TEXT/UTF8
  • Codec ID/Info          : UTF-8 Plain Text
  • Duration           : 1 h 36 min
  • Bit rate           : 60 b/s
  • Count of elements        : 1279
  • Stream size          : 43.0 KiB (0%)
  • Title            : English-SRT
  • Language           : English
  • Default            : Yes
  • Forced           : No
  • Text #2
  • ID             : 12
  • Format           : PGS
  • Muxing mode          : zlib
  • Codec ID           : S_HDMV/PGS
  • Codec ID/Info          : Picture based subtitle format used on BDs/HD-DVDs
  • Duration           : 1 h 36 min
  • Bit rate           : 49.7 kb/s
  • Count of elements        : 3095
  • Stream size          : 34.3 MiB (0%)
  • Title            : English-PGS
  • Language           : English
  • Default            : No
  • Forced           : No
  • Text #3
  • ID             : 13
  • Format           : PGS
  • Muxing mode          : zlib
  • Codec ID           : S_HDMV/PGS
  • Codec ID/Info          : Picture based subtitle format used on BDs/HD-DVDs
  • Duration           : 1 h 36 min
  • Bit rate           : 41.9 kb/s
  • Count of elements        : 2554
  • Stream size          : 28.9 MiB (0%)
  • Title            : French-PGS
  • Language           : French
  • Default            : No
  • Forced           : No
  • Text #4
  • ID             : 14
  • Format           : PGS
  • Muxing mode          : zlib
  • Codec ID           : S_HDMV/PGS
  • Codec ID/Info          : Picture based subtitle format used on BDs/HD-DVDs
  • Duration           : 1 h 36 min
  • Bit rate           : 36.3 kb/s
  • Count of elements        : 2250
  • Stream size          : 25.1 MiB (0%)
  • Title            : Spanish-PGS
  • Language           : Spanish
  • Default            : No
  • Forced           : No
  • Menu
  • 00:00:00.000         : en:Chapter 01
  • 00:04:54.335         : en:Chapter 02
  • 00:06:20.880         : en:Chapter 03
  • 00:11:38.239         : en:Chapter 04
  • 00:15:18.000         : en:Chapter 05
  • 00:18:35.030         : en:Chapter 06
  • 00:19:24.705         : en:Chapter 07
  • 00:26:17.909         : en:Chapter 08
  • 00:29:00.238         : en:Chapter 09
  • 00:31:48.656         : en:Chapter 10
  • 00:33:23.167         : en:Chapter 11
  • 00:35:50.898         : en:Chapter 12
  • 00:37:30.957         : en:Chapter 13
  • 00:40:11.951         : en:Chapter 14
  • 00:41:13.471         : en:Chapter 15
  • 00:43:38.324         : en:Chapter 16
  • 00:44:50.104         : en:Chapter 17
  • 00:48:20.355         : en:Chapter 18
  • 00:52:28.895         : en:Chapter 19
  • 00:53:52.562         : en:Chapter 20
  • 00:57:12.804         : en:Chapter 21
  • 00:58:21.164         : en:Chapter 22
  • 01:01:10.708         : en:Chapter 23
  • 01:02:07.140         : en:Chapter 24
  • 01:02:57.857         : en:Chapter 25
  • 01:06:35.866         : en:Chapter 26
  • 01:11:22.444         : en:Chapter 27
  • 01:15:58.095         : en:Chapter 28
  • 01:17:36.443         : en:Chapter 29
  • 01:19:44.029         : en:Chapter 30
  • 01:23:02.519         : en:Chapter 31
  • 01:25:00.345         : en:Chapter 32
  • 01:28:16.249         : en:Chapter 33
  • 01:34:19.111         : en:Chapter 34

復制代碼










分享到:  QQ好友和群QQ好友和群
收藏收藏
字幕下載網站---點這里進入
回復

使用道具 舉報

0

主題

334

帖子

726

積分

高級會員

Rank: 4

積分
726
2#
發表于 3 天前 | 只看該作者
http://www.yjsqsn.com/bazisuanming/3678.html
http://www.yjsqsn.com/bazisuanming/3679.html
字幕下載網站---點這里進入
回復

使用道具 舉報

您需要登錄后才可以回帖 登錄 | 立即注冊

本版積分規則

QQ|Archiver|手機版|小黑屋|藍光電影網

GMT+8, 2019-8-14 06:24 , Processed in 0.057825 second(s), 20 queries .

Powered by Discuz! X3.4

© 2001-2017 Comsenz Inc.

快速回復 返回頂部 返回列表
辽宁11选5前3直