藍光電影網

 找回密碼
 立即注冊

QQ登錄

只需一步,快速開始

搜索
熱搜: 活動 交友 discuz
查看: 284|回復: 1
打印 上一主題 下一主題

[10bit.SDR] 星球大戰 Star.Wars.Episode.IV.A.New.Hope.1977.2160p.CUSTOM.DCPRIP.SDR.x265.DTS-HD.MA.5.1- 73.34GB

[復制鏈接]

2萬

主題

2萬

帖子

3萬

積分

管理員

Rank: 9Rank: 9Rank: 9

積分
31873
跳轉到指定樓層
1#
發表于 2019-6-5 16:04:46 | 只看該作者 |只看大圖 回帖獎勵 |倒序瀏覽 |閱讀模式


譯  名 星球大戰 / Star Wars: Episode IV - A New Hope / 星球大戰第四集:新希望 / 星際大戰 / 星際大戰四部曲:曙光乍現
片  名 Star Wars
年  代 1977
產  地 美國
類  別 行動 / 科幻 / 冒險
語  言 英語
上映日期 1977-05-25(美國)
IMDb評分8.6/10 from 1119094 users
IMDb鏈接http://www.imdb.com/title/tt0076759
豆瓣評分 8.4/10 from 83547 users
豆瓣鏈接 https://movie.douban.com/subject/1293838/
片  長 121分鐘
導  演 喬治·盧卡斯 George Lucas
編  劇 喬治·盧卡斯 George Lucas
主  演 哈里森·福特 Harrison Ford
      馬克·哈米爾 Mark Hamill
      凱麗·費雪 Carrie Fisher
      彼得·庫欣 Peter Cushing
      亞利克·基尼斯 Alec Guinness
      彼特·梅靨 Peter Mayhew
      大衛·鮑羅斯 David Prowse
      詹姆斯·厄爾·瓊斯 James Earl Jones


標  簽 科幻 | 星球大戰 | 美國 | 典范 | 1977 | 行動 | 冒險 | 戰爭

簡  介

  悠遠星系發生叛亂,銀河共和國被顛覆,奧爾德蘭星的莉亞公主(卡里?費什爾 Carrie Fisher 飾)帶領抵抗構造匹敵銀河帝國,卻不幸被銀河帝國的維德勛爵(大衛?普勞斯 David Prowse 飾)所俘。機械人R2-D2攜銀河帝國新兵器“死星”的結構圖與同伴翻譯機械人C-3PO逃至塔圖因星,途中被加瓦人捉住賣給青年盧克?天行者(馬克?哈米爾 Mark Hamill 飾)的叔父。在盧克的幫助下,眾人陰錯陽差找到了隱居的絕地軍人歐比-旺?肯諾比(亞歷克?吉尼斯 Alec Guinness 飾)。歐比-旺交給盧克絕地之道,并帶盧克與兩機械人到口岸城市茅斯伊斯壘,雇傭走私者韓?索羅(哈里森?福特飾)的千年隼飛船前往奧爾德蘭……
本片獲第50界奧斯卡最好藝術指導,最好打扮設想,最好視覺結果,最好剪輯,最好原創音樂,最好聲效六項大獎及特別進獻獎(本?伯特 Ben Burtt),并獲最好電影,最好男配角(亞歷克?吉尼斯),最好導演(喬治?盧卡斯),最好原創電影音樂四項提名。

獲獎情況

  第50屆奧斯卡金像獎(1978)
  最好影片(提名) 加里·庫爾茨
  最好導演(提名) 喬治·盧卡斯
  最好男配角(提名) 亞歷克·吉尼斯
  最好原創劇本(提名) 喬治·盧卡斯
  最好剪輯 趙汝鉅 / 保羅·赫希 / Marcia Lucas
  最好視覺結果 約翰·戴克斯特拉 / 理查德·艾德蘭德 / John Stears / Robert Blalack / 格蘭特·麥丘恩
  最好聲響 唐·麥克杜格爾 / Bob Minkler / Derek Ball / Ray West
  最好藝術指導 諾曼·雷諾茲 / 羅杰·克里斯蒂安 / John Barry / 萊斯利·迪利
  最好打扮設想 John Mollo
  最好原創配樂 約翰·威廉姆斯
  出格成就獎 本·貝爾特

  第3屆報知映畫賞(1978)
  外洋作品獎 喬治·盧卡斯



  • Video
  • ID             : 1
  • Format           : HEVC
  • Format/Info          : High Efficiency Video Coding
  • Format profile         : Main <a href="/cdn-cgi/l/email-protection" class="__cf_email__" data-cfemail="ba8b8afaf68f948b">[email protected]</a>@High
  • Codec ID           : V_MPEGH/ISO/HEVC
  • Duration           : 2 h 1 min
  • Bit rate           : 77.0 Mb/s
  • Width            : 3 840 pixels
  • Height           : 2 160 pixels
  • Display aspect ratio       : 16:9
  • Frame rate mode        : Constant
  • Frame rate           : 23.976 (24000/1001) FPS
  • Standard           : Component
  • Color space          : YUV
  • Chroma subsampling       : 4:2:0
  • Bit depth          : 10 bits
  • Bits/(Pixel*Frame)       : 0.387
  • Stream size          : 65.4 GiB (89%)
  • Writing library        : x265 :[Windows][MSVC 1800][64 bit] 16bpp
  • Encoding settings        : wpp / ctu=64 / min-cu-size=8 / max-tu-size=32 / tu-intra-depth=1 / tu-inter-depth=1 / me=1 / subme=2 / merange=57 / no-rect / no-amp / max-merge=2 / temporal-mvp / no-early-skip / rdpenalty=0 / no-tskip / no-tskip-fast / no-strong-intra-smoothing / no-lossless / no-cu-lossless / no-constrained-intra / no-fast-intra / open-gop / no-temporal-layers / interlace=0 / keyint=250 / min-keyint=23 / scenecut=40 / rc-lookahead=20 / lookahead-slices=8 / bframes=3 / bframe-bias=0 / b-adapt=2 / ref=5 / limit-refs=3 / no-limit-modes / weightp / no-weightb / aq-mode=1 / qg-size=64 / aq-strength=1.00 / cbqpoffs=0 / crqpoffs=0 / rd=3 / psy-rd=2.00 / rdoq-level=0 / psy-rdoq=0.00 / signhide / deblock / sao / no-sao-non-deblock / no-b-pyramid / cutree / no-intra-refresh / rc=2 / pass / bitrate=77000000 / qcomp=0.60 / qpmin=0 / qpmax=51 / qpstep=4 / cplxblur=20.0 / qblur=0.5 / vbv-maxrate=119250000 / vbv-bufsize=119250000 / ipratio=1.40 / pbratio=1.30
  • Language           : English
  • Default            : Yes
  • Forced           : No
  • Color range          : Limited
  • Color primaries        : BT.709
  • Transfer characteristics     : BT.709
  • Matrix coefficients        : BT.709
  • Audio #1
  • ID             : 2
  • Format           : DTS XLL
  • Format/Info          : Digital Theater Systems
  • Commercial name        : DTS-HD Master Audio
  • Codec ID           : A_DTS
  • Duration           : 2 h 1 min
  • Bit rate mode          : Variable
  • Bit rate           : 1 642 kb/s
  • Channel(s)           : 2 channels
  • Sampling rate          : 48.0 kHz
  • Frame rate           : 93.750 FPS (512 SPF)
  • Bit depth          : 16 bits
  • Compression mode         : Lossless
  • Stream size          : 1.39 GiB (2%)
  • Title            : 2.0 DTS-HD-MA (1977 35mm stereo mix 2018)
  • Language           : English
  • Default            : Yes
  • Forced           : No
  • Audio #2
  • ID             : 3
  • Format           : DTS XLL
  • Format/Info          : Digital Theater Systems
  • Commercial name        : DTS-HD Master Audio
  • Codec ID           : A_DTS
  • Duration           : 2 h 1 min
  • Bit rate mode          : Variable
  • Bit rate           : 3 711 kb/s
  • Channel(s)           : 6 channels
  • Channel layout         : C L R Ls Rs LFE
  • Sampling rate          : 48.0 kHz
  • Frame rate           : 93.750 FPS (512 SPF)
  • Bit depth          : 24 bits
  • Compression mode         : Lossless
  • Stream size          : 3.14 GiB (4%)
  • Title            : 5.1 DTS-HD-MA (1977 70mm six track mix 2018)
  • Language           : English
  • Default            : No
  • Forced           : No
  • Audio #3
  • ID             : 4
  • Format           : DTS XLL
  • Format/Info          : Digital Theater Systems
  • Commercial name        : DTS-HD Master Audio
  • Codec ID           : A_DTS
  • Duration           : 2 h 1 min
  • Bit rate mode          : Variable
  • Bit rate           : 544 kb/s
  • Channel(s)           : 1 channel
  • Channel layout         : C
  • Sampling rate          : 48.0 kHz
  • Frame rate           : 93.750 FPS (512 SPF)
  • Bit depth          : 16 bits
  • Compression mode         : Lossless
  • Stream size          : 471 MiB (1%)
  • Title            : 1.0 DTS-HD-MA (1977 35mm mono mix)
  • Language           : English
  • Default            : No
  • Forced           : No
  • Audio #4
  • ID             : 5
  • Format           : AC-3
  • Format/Info          : Audio Coding 3
  • Commercial name        : Dolby Digital
  • Codec ID           : A_AC3
  • Duration           : 2 h 1 min
  • Bit rate mode          : Constant
  • Bit rate           : 192 kb/s
  • Channel(s)           : 2 channels
  • Channel layout         : L R
  • Sampling rate          : 48.0 kHz
  • Frame rate           : 31.250 FPS (1536 SPF)
  • Bit depth          : 16 bits
  • Compression mode         : Lossy
  • Stream size          : 166 MiB (0%)
  • Title            : 2.0 Dolby Digital (1978 dub reconstruction)
  • Language           : German
  • Service kind         : Complete Main
  • Default            : No
  • Forced           : No
  • Audio #5
  • ID             : 6
  • Format           : AC-3
  • Format/Info          : Audio Coding 3
  • Commercial name        : Dolby Digital
  • Codec ID           : A_AC3
  • Duration           : 2 h 1 min
  • Bit rate mode          : Constant
  • Bit rate           : 192 kb/s
  • Channel(s)           : 2 channels
  • Channel layout         : L R
  • Sampling rate          : 48.0 kHz
  • Frame rate           : 31.250 FPS (1536 SPF)
  • Bit depth          : 16 bits
  • Compression mode         : Lossy
  • Stream size          : 166 MiB (0%)
  • Title            : 2.0 Dolby Digital (1977 dub)
  • Language           : French
  • Service kind         : Complete Main
  • Default            : No
  • Forced           : No
  • Audio #6
  • ID             : 7
  • Format           : AC-3
  • Format/Info          : Audio Coding 3
  • Commercial name        : Dolby Digital
  • Codec ID           : A_AC3
  • Duration           : 2 h 1 min
  • Bit rate mode          : Constant
  • Bit rate           : 192 kb/s
  • Channel(s)           : 2 channels
  • Channel layout         : L R
  • Sampling rate          : 48.0 kHz
  • Frame rate           : 31.250 FPS (1536 SPF)
  • Bit depth          : 16 bits
  • Compression mode         : Lossy
  • Stream size          : 166 MiB (0%)
  • Title            : 2.0 Dolby Digital (1977 Castilian dub)
  • Language           : Spanish
  • Service kind         : Complete Main
  • Default            : No
  • Forced           : No
  • Audio #7
  • ID             : 8
  • Format           : AC-3
  • Format/Info          : Audio Coding 3
  • Commercial name        : Dolby Digital
  • Codec ID           : A_AC3
  • Duration           : 2 h 1 min
  • Bit rate mode          : Constant
  • Bit rate           : 96.0 kb/s
  • Channel(s)           : 1 channel
  • Channel layout         : C
  • Sampling rate          : 48.0 kHz
  • Frame rate           : 31.250 FPS (1536 SPF)
  • Bit depth          : 16 bits
  • Compression mode         : Lossy
  • Stream size          : 83.2 MiB (0%)
  • Title            : 1.0 Dolby Digital (1980 Latino dub)
  • Language           : Spanish
  • Service kind         : Complete Main
  • Default            : No
  • Forced           : No
  • Audio #8
  • ID             : 9
  • Format           : AC-3
  • Format/Info          : Audio Coding 3
  • Commercial name        : Dolby Digital
  • Codec ID           : A_AC3
  • Duration           : 2 h 1 min
  • Bit rate mode          : Constant
  • Bit rate           : 192 kb/s
  • Channel(s)           : 2 channels
  • Channel layout         : L R
  • Sampling rate          : 48.0 kHz
  • Frame rate           : 31.250 FPS (1536 SPF)
  • Bit depth          : 16 bits
  • Compression mode         : Lossy
  • Stream size          : 166 MiB (0%)
  • Title            : 2.0 Dolby Digital (1977 dub)
  • Language           : Italian
  • Service kind         : Complete Main
  • Default            : No
  • Forced           : No
  • Audio #9
  • ID             : 10
  • Format           : AC-3
  • Format/Info          : Audio Coding 3
  • Commercial name        : Dolby Digital
  • Codec ID           : A_AC3
  • Duration           : 2 h 1 min
  • Bit rate mode          : Constant
  • Bit rate           : 192 kb/s
  • Channel(s)           : 2 channels
  • Channel layout         : L R
  • Sampling rate          : 48.0 kHz
  • Frame rate           : 31.250 FPS (1536 SPF)
  • Bit depth          : 16 bits
  • Compression mode         : Lossy
  • Stream size          : 166 MiB (0%)
  • Title            : 2.0 Dolby Digital (1995 Voiceover)
  • Language           : Polish
  • Service kind         : Complete Main
  • Default            : No
  • Forced           : No
  • Audio #10
  • ID             : 11
  • Format           : AC-3
  • Format/Info          : Audio Coding 3
  • Commercial name        : Dolby Digital
  • Codec ID           : A_AC3
  • Duration           : 2 h 1 min
  • Bit rate mode          : Constant
  • Bit rate           : 192 kb/s
  • Channel(s)           : 2 channels
  • Channel layout         : L R
  • Sampling rate          : 48.0 kHz
  • Frame rate           : 31.250 FPS (1536 SPF)
  • Bit depth          : 16 bits
  • Compression mode         : Lossy
  • Stream size          : 166 MiB (0%)
  • Title            : 2.0 Dolby Digital (1992 dub)
  • Language           : Czech
  • Service kind         : Complete Main
  • Default            : No
  • Forced           : No
  • Audio #11
  • ID             : 12
  • Format           : AC-3
  • Format/Info          : Audio Coding 3
  • Commercial name        : Dolby Digital
  • Codec ID           : A_AC3
  • Duration           : 2 h 1 min
  • Bit rate mode          : Constant
  • Bit rate           : 384 kb/s
  • Channel(s)           : 3 channels
  • Channel layout         : L R C
  • Sampling rate          : 48.0 kHz
  • Frame rate           : 31.250 FPS (1536 SPF)
  • Bit depth          : 16 bits
  • Compression mode         : Lossy
  • Stream size          : 333 MiB (0%)
  • Title            : 3.0 Dolby Digital (1993 LD Audio Commentary - 2018)
  • Language           : English
  • Service kind         : Complete Main
  • Default            : No
  • Forced           : No
  • Audio #12
  • ID             : 13
  • Format           : AC-3
  • Format/Info          : Audio Coding 3
  • Commercial name        : Dolby Digital
  • Codec ID           : A_AC3
  • Duration           : 2 h 1 min
  • Bit rate mode          : Constant
  • Bit rate           : 384 kb/s
  • Channel(s)           : 2 channels
  • Channel layout         : L R
  • Sampling rate          : 48.0 kHz
  • Frame rate           : 31.250 FPS (1536 SPF)
  • Bit depth          : 16 bits
  • Compression mode         : Lossy
  • Stream size          : 333 MiB (0%)
  • Title            : 2.0 Dolby Digital (Isolated Score 2018)
  • Language           : English
  • Service kind         : Complete Main
  • Default            : No
  • Forced           : No
  • Audio #13
  • ID             : 14
  • Format           : AC-3
  • Format/Info          : Audio Coding 3
  • Commercial name        : Dolby Digital
  • Codec ID           : A_AC3
  • Duration           : 2 h 1 min
  • Bit rate mode          : Constant
  • Bit rate           : 192 kb/s
  • Channel(s)           : 2 channels
  • Channel layout         : L R
  • Sampling rate          : 48.0 kHz
  • Frame rate           : 31.250 FPS (1536 SPF)
  • Bit depth          : 16 bits
  • Compression mode         : Lossy
  • Stream size          : 167 MiB (0%)
  • Title            : 2.0 Dolby Digital (Commentary For Visually Impaired)
  • Language           : English
  • Service kind         : Complete Main
  • Default            : No
  • Forced           : No
  • Audio #14
  • ID             : 15
  • Format           : AC-3
  • Format/Info          : Audio Coding 3
  • Commercial name        : Dolby Digital
  • Codec ID           : A_AC3
  • Duration           : 2 h 1 min
  • Bit rate mode          : Constant
  • Bit rate           : 384 kb/s
  • Channel(s)           : 2 channels
  • Channel layout         : L R
  • Sampling rate          : 48.0 kHz
  • Frame rate           : 31.250 FPS (1536 SPF)
  • Bit depth          : 16 bits
  • Compression mode         : Lossy
  • Stream size          : 333 MiB (0%)
  • Title            : 2.0 Dolby Digital 1985 Stereo Remix English
  • Language           : English
  • Service kind         : Complete Main
  • Default            : No
  • Forced           : No
  • Audio #15
  • ID             : 16
  • Format           : AC-3
  • Format/Info          : Audio Coding 3
  • Commercial name        : Dolby Digital
  • Codec ID           : A_AC3
  • Duration           : 2 h 1 min
  • Bit rate mode          : Constant
  • Bit rate           : 384 kb/s
  • Channel(s)           : 2 channels
  • Channel layout         : L R
  • Sampling rate          : 48.0 kHz
  • Frame rate           : 31.250 FPS (1536 SPF)
  • Bit depth          : 16 bits
  • Compression mode         : Lossy
  • Stream size          : 333 MiB (0%)
  • Title            : 2.0 Dolby Digital 1993 Stereo Remix English
  • Language           : English
  • Service kind         : Complete Main
  • Default            : No
  • Forced           : No
  • Audio #16
  • ID             : 17
  • Format           : AC-3
  • Format/Info          : Audio Coding 3
  • Commercial name        : Dolby Digital
  • Codec ID           : A_AC3
  • Duration           : 2 h 1 min
  • Bit rate mode          : Constant
  • Bit rate           : 320 kb/s
  • Channel(s)           : 2 channels
  • Channel layout         : L R
  • Sampling rate          : 48.0 kHz
  • Frame rate           : 31.250 FPS (1536 SPF)
  • Bit depth          : 16 bits
  • Compression mode         : Lossy
  • Stream size          : 277 MiB (0%)
  • Title            : 2.0 Dolby Digital (1977 35mm stereo mix Dolby A)
  • Language           : English
  • Service kind         : Complete Main
  • Default            : No
  • Forced           : No
  • Menu
  • 00:00:00.000         : en:
  • 00:00:21.187         : en:
  • 00:01:54.616         : en:
  • 00:04:53.335         : en:
  • 00:07:28.828         : en:
  • 00:08:55.217         : en:
  • 00:11:21.701         : en:
  • 00:15:23.618         : en:
  • 00:19:19.862         : en:
  • 00:23:13.301         : en:
  • 00:25:12.225         : en:
  • 00:27:25.196         : en:
  • 00:28:52.319         : en:
  • 00:32:13.827         : en:
  • 00:34:32.637         : en:
  • 00:36:33.762         : en:
  • 00:38:45.265         : en:
  • 00:41:20.893         : en:
  • 00:42:10.444         : en:
  • 00:43:59.756         : en:
  • 00:47:00.743         : en:
  • 00:49:06.038         : en:
  • 00:50:21.951         : en:
  • 00:51:40.699         : en:
  • 00:51:48.541         : en:
  • 00:54:30.875         : en:
  • 00:56:43.846         : en:
  • 01:00:41.791         : en:
  • 01:03:47.450         : en:
  • 01:05:52.946         : en:
  • 01:10:03.338         : en:
  • 01:11:43.640         : en:
  • 01:14:44.795         : en:
  • 01:16:40.414         : en:
  • 01:19:00.393         : en:
  • 01:22:31.277         : en:
  • 01:24:33.103         : en:
  • 01:27:27.250         : en:
  • 01:31:19.189         : en:
  • 01:34:10.999         : en:
  • 01:35:37.789         : en:
  • 01:37:08.182         : en:
  • 01:38:55.493         : en:
  • 01:40:08.402         : en:
  • 01:42:07.892         : en:
  • 01:46:48.148         : en:
  • 01:52:24.195         : en:
  • 01:54:52.648         : en:
  • 01:55:34.191         : en:
  • 01:57:19.800         : en:

復制代碼








分享到:  QQ好友和群QQ好友和群
收藏收藏
字幕下載網站---點這里進入
回復

使用道具 舉報

0

主題

283

帖子

623

積分

高級會員

Rank: 4

積分
623
2#
發表于 前天 13:00 | 只看該作者
http://m.zfyml.com/suanming/10182.html
http://m.zfyml.com/suanming/10183.html
http://m.zfyml.com/suanming/10184.html
http://m.zfyml.com/suanming/10185.html
http://m.zfyml.com/suanming/10186.html
http://m.zfyml.com/mingli/hunyin/10187.html
http://m.zfyml.com/mingli/hunyin/10188.html
http://m.zfyml.com/mingli/hunyin/10189.html
http://m.zfyml.com/mingli/hunyin/10190.html
http://m.zfyml.com/mingli/hunyin/10191.html
http://m.zfyml.com/mingli/caiyun/10192.html
http://m.zfyml.com/mingli/caiyun/10193.html
http://m.zfyml.com/mingli/caiyun/10194.html
http://m.zfyml.com/mingli/caiyun/10195.html
http://m.zfyml.com/mingli/xiangshu/10196.html
http://m.zfyml.com/fengshui/zzfs/10197.html
http://m.zfyml.com/fengshui/zzfs/10198.html
http://m.zfyml.com/fengshui/zzfs/10199.html
http://m.zfyml.com/fengshui/zzfs/10200.html
http://m.zfyml.com/fengshui/zzfs/10201.html
http://m.zfyml.com/mingli/xiangshu/10202.html
http://m.zfyml.com/mingli/xiangshu/10203.html
http://m.zfyml.com/mingli/xiangshu/10204.html
http://m.zfyml.com/mingli/xiangshu/10205.html
http://m.zfyml.com/mingli/xiangshu/10206.html
http://m.zfyml.com/huangli/10207.html
字幕下載網站---點這里進入
回復

使用道具 舉報

您需要登錄后才可以回帖 登錄 | 立即注冊

本版積分規則

QQ|Archiver|手機版|小黑屋|藍光電影網

GMT+8, 2019-8-13 05:44 , Processed in 0.060121 second(s), 20 queries .

Powered by Discuz! X3.4

© 2001-2017 Comsenz Inc.

快速回復 返回頂部 返回列表
辽宁11选5前3直